<?xml version="1.0" standalone="no"?>
<!DOCTYPE svg PUBLIC "-//W3C//DTD SVG 1.1//EN" "http://www.w3.org/Graphics/SVG/1.1/DTD/svg11.dtd" >
<svg>
<metadata>
Created by FontForge 20120731 at Mon Aug  1 23:31:06 2016
 By ,,,
2009  published by FSI FontShop International GmbH
</metadata>
<defs>
<font id="DINRoundPro-Bold" horiz-adv-x="1086" >
  <font-face 
    font-family="DINRoundPro-Bold"
    font-weight="700"
    font-stretch="normal"
    units-per-em="2000"
    panose-1="2 11 8 4 2 1 1 2 1 2"
    ascent="1528"
    descent="-472"
    x-height="1042"
    cap-height="1424"
    bbox="-229 -521 2365 2115.66"
    underline-thickness="200"
    underline-position="-82"
    unicode-range="U+000D-FB02"
  />
<missing-glyph horiz-adv-x="1156" 
d="M315 0q-28 0 -45 1.5t-42.5 10.5t-43.5 27t-27 43.5t-10.5 42.5t-1.5 45v1084q0 28 1.5 45t10.5 42.5t27 43.5t43.5 27t42.5 10.5t45 1.5h526q28 0 45 -1.5t42.5 -10.5t43.5 -27t27 -43.5t10.5 -42.5t1.5 -45v-1084q0 -28 -1.5 -45t-10.5 -42.5t-27 -43.5t-43.5 -27
t-42.5 -10.5t-45 -1.5h-526zM425 1176v-928h306v928h-306z" />
    <glyph glyph-name=".notdef" horiz-adv-x="1156" 
d="M315 0q-28 0 -45 1.5t-42.5 10.5t-43.5 27t-27 43.5t-10.5 42.5t-1.5 45v1084q0 28 1.5 45t10.5 42.5t27 43.5t43.5 27t42.5 10.5t45 1.5h526q28 0 45 -1.5t42.5 -10.5t43.5 -27t27 -43.5t10.5 -42.5t1.5 -45v-1084q0 -28 -1.5 -45t-10.5 -42.5t-27 -43.5t-43.5 -27
t-42.5 -10.5t-45 -1.5h-526zM425 1176v-928h306v928h-306z" />
    <glyph glyph-name=".null" horiz-adv-x="0" 
 />
    <glyph glyph-name=".null" horiz-adv-x="0" 
 />
    <glyph glyph-name="nonmarkingreturn" horiz-adv-x="666" 
 />
    <glyph glyph-name="CR" unicode="&#xd;" horiz-adv-x="464" 
 />
    <glyph glyph-name="space" unicode=" " horiz-adv-x="464" 
 />
    <glyph glyph-name="exclam" unicode="!" horiz-adv-x="694" 
d="M523 1244v-617q0 -51 -3.5 -74t-15.5 -48q-16 -30 -48.5 -48t-72.5 -18t-72.5 18t-48.5 48q-12 25 -15.5 48t-3.5 74v617q0 51 3.5 74t15.5 48q16 30 48.5 48t72.5 18t72.5 -18t48.5 -48q12 -25 15.5 -48t3.5 -74zM541 150q0 -64 -46.5 -110t-111.5 -46t-110.5 46
t-45.5 110q0 65 46 111.5t110 46.5q65 0 111.5 -47t46.5 -111z" />
    <glyph glyph-name="quotedbl" unicode="&#x22;" horiz-adv-x="914" 
d="M116 1057v201q0 82 17 116q31 62 113 62t113 -62q17 -34 17 -116v-201q0 -82 -17 -116q-31 -62 -113 -62t-113 62q-17 34 -17 116zM538 1057v201q0 82 17 116q31 62 113 62t113 -62q17 -34 17 -116v-201q0 -82 -17 -116q-31 -62 -113 -62t-113 62q-17 34 -17 116z" />
    <glyph glyph-name="numbersign" unicode="#" horiz-adv-x="1468" 
d="M1376 967q0 -73 -57 -103q-29 -15 -107 -15h-84l-47 -235h60q78 0 107 -15q57 -30 57 -103t-57 -103q-29 -15 -107 -15h-107l-49 -245q-9 -47 -18.5 -70.5t-30.5 -43.5q-28 -27 -77 -27q-54 0 -91 35q-29 28 -32 72t9 82l39 197h-241l-49 -245q-9 -47 -18.5 -70.5
t-30.5 -43.5q-28 -27 -77 -27q-54 0 -91 35q-29 28 -32 72t9 82l39 197h-37q-78 0 -107 15q-57 30 -57 103t57 103q29 15 107 15h84l47 235h-60q-78 0 -107 15q-57 30 -57 103t57 103q29 15 107 15h107l44 218q9 47 18.5 70.5t30.5 43.5q28 27 77 27q54 0 91 -35
q29 -28 32 -72t-9 -82l-34 -170h241l44 218q9 47 18.5 70.5t30.5 43.5q28 27 77 27q54 0 91 -35q29 -28 32 -72t-9 -82l-34 -170h37q78 0 107 -15q57 -30 57 -103zM637 849l-47 -235h241l47 235h-241z" />
    <glyph glyph-name="dollar" unicode="$" horiz-adv-x="1186" 
d="M181 346q41 0 113 -38q78 -41 135.5 -57.5t134.5 -16.5q122 0 187.5 47t65.5 132q0 77 -43 119q-37 35 -128 49l-170 25q-181 27 -276 119q-102 99 -102 279q0 163 97.5 276t270.5 145v47q0 68 15 97q28 51 94 51t94 -51q15 -29 15 -97v-40q116 -12 232 -65
q114 -53 114 -139q0 -46 -32 -86q-33 -38 -83 -38q-42 0 -104 32q-106 56 -225 56q-105 0 -162 -49.5t-57 -122.5q0 -71 41 -109q47 -42 132 -55l167 -24q185 -27 273 -111q110 -103 110 -301q0 -172 -111.5 -282.5t-294.5 -139.5v-85q0 -69 -15 -97q-28 -51 -94 -51t-94 51
q-15 28 -15 97v78q-138 11 -259 70q-74 35 -108 70.5t-34 92.5q0 53 38 91q31 31 78 31z" />
    <glyph glyph-name="percent" unicode="%" horiz-adv-x="1697" 
d="M1255 1341q0 -22 -25 -73l-600 -1194q-16 -31 -25 -44t-23 -23q-22 -15 -48 -15q-21 0 -43 11q-50 25 -50 80q0 22 25 73l600 1194q16 31 25 44t23 23q22 15 48 15q21 0 43 -11q50 -25 50 -80zM496 971v183q0 114 -101 114q-102 0 -102 -114v-183q0 -114 102 -114
q101 0 101 114zM104 964v197q0 130 83.5 202.5t207.5 72.5t207 -72.5t83 -202.5v-197q0 -131 -83 -203t-207 -72t-207.5 72.5t-83.5 202.5zM1404 270v183q0 114 -101 114q-102 0 -102 -114v-183q0 -114 102 -114q101 0 101 114zM1012 263v197q0 130 83.5 202.5t207.5 72.5
t207 -72.5t83 -202.5v-197q0 -131 -83 -203t-207 -72t-207.5 72.5t-83.5 202.5z" />
    <glyph glyph-name="ampersand" unicode="&#x26;" horiz-adv-x="1420" 
d="M799 308l-284 334q-73 -51 -108.5 -99t-35.5 -119q0 -87 62.5 -143.5t153.5 -56.5q116 0 212 84zM731 1098q0 51 -32 83.5t-86 32.5q-57 0 -87.5 -32.5t-30.5 -83.5q0 -24 15 -53.5t30 -48.5t49 -58l60 40q82 57 82 120zM1137 306l54 -64q36 -43 49 -67.5t13 -52.5
q0 -58 -50 -99q-38 -32 -85 -32q-36 0 -61.5 18t-65.5 66l-38 45q-37 -29 -62.5 -46t-71.5 -40t-103.5 -34.5t-126.5 -11.5q-231 0 -350.5 113.5t-119.5 318.5q0 65 21.5 123.5t61 106t80 82.5t93.5 70q-40 45 -65 79t-51 97t-26 126q0 148 102 240t278 92q166 0 266 -94
t100 -242q0 -142 -148 -248l-102 -74l240 -284q53 72 67 189q7 49 21 74q31 57 101 57q35 0 63.5 -16.5t42.5 -42.5q16 -29 16 -82q0 -97 -47 -210q-36 -89 -96 -157z" />
    <glyph glyph-name="quotesingle" unicode="'" horiz-adv-x="492" 
d="M116 1057v201q0 82 17 116q31 62 113 62t113 -62q17 -34 17 -116v-201q0 -82 -17 -116q-31 -62 -113 -62t-113 62q-17 34 -17 116z" />
    <glyph glyph-name="parenleft" unicode="(" horiz-adv-x="671" 
d="M420 1134v-844q0 -100 33 -161q26 -46 61 -81q32 -31 45 -50.5t20 -43.5q9 -26 1 -59.5t-33 -59.5q-38 -38 -94 -38q-32 0 -59 14t-68 56q-90 91 -126 165q-40 84 -40 245v870q0 161 40 245q36 74 126 165q41 42 68 56t59 14q56 0 94 -38q25 -26 33 -59.5t-1 -59.5
q-7 -24 -20 -43.5t-45 -50.5q-35 -35 -61 -81q-33 -61 -33 -161z" />
    <glyph glyph-name="parenright" unicode=")" horiz-adv-x="671" 
d="M251 290v844q0 100 -33 161q-26 46 -61 81q-32 31 -45 50.5t-20 43.5q-9 26 -1 59.5t33 59.5q38 38 94 38q32 0 59 -14t68 -56q90 -91 126 -165q40 -84 40 -245v-870q0 -161 -40 -245q-36 -74 -126 -165q-41 -42 -68 -56t-59 -14q-56 0 -94 38q-25 26 -33 59.5t1 59.5
q7 24 20 43.5t45 50.5q35 35 61 81q33 61 33 161z" />
    <glyph glyph-name="asterisk" unicode="*" horiz-adv-x="956" 
d="M210 1285q30 -3 76 -30l101 -61v116q0 57 12 81q23 45 79 45t79 -45q12 -24 12 -81v-116l101 61q46 27 76 30q49 3 78 -45t3 -90q-15 -24 -63 -53l-102 -61l102 -61q48 -29 63 -53q26 -42 -3 -90t-78 -45q-30 3 -76 30l-101 61v-116q0 -57 -12 -81q-23 -45 -79 -45
t-79 45q-12 24 -12 81v116l-101 -61q-46 -27 -76 -30q-49 -3 -78 45t-3 90q15 24 63 53l102 61l-102 61q-48 29 -63 53q-26 42 3 90t78 45z" />
    <glyph glyph-name="plus" unicode="+" 
d="M829 455h-168v-168q0 -78 -15 -107q-30 -57 -103 -57t-103 57q-15 29 -15 107v168h-168q-78 0 -107 15q-57 30 -57 103t57 103q29 15 107 15h168v168q0 78 15 107q30 57 103 57t103 -57q15 -29 15 -107v-168h168q78 0 107 -15q57 -30 57 -103t-57 -103q-29 -15 -107 -15z
" />
    <glyph glyph-name="comma" unicode="," horiz-adv-x="552" 
d="M434 241q6 -39 -19 -114l-87 -263q-24 -74 -53 -102q-32 -32 -82 -32q-43 0 -84.5 27t-48.5 76q-6 39 19 114l87 263q24 74 53 102q32 32 82 32q43 0 84.5 -27t48.5 -76z" />
    <glyph glyph-name="hyphen" unicode="-" horiz-adv-x="852" 
d="M742 571q0 -73 -57 -103q-29 -15 -107 -15h-304q-78 0 -107 15q-57 30 -57 103t57 103q29 15 107 15h304q78 0 107 -15q57 -30 57 -103z" />
    <glyph glyph-name="period" unicode="." horiz-adv-x="570" 
d="M460 168q0 -72 -52 -123t-124 -51t-123 51t-51 123t51 123t123 51t124 -51t52 -123z" />
    <glyph glyph-name="slash" unicode="/" horiz-adv-x="807" 
d="M770 1499q13 -37 -15 -121l-472 -1409q-10 -30 -17.5 -47t-22 -38t-35.5 -30.5t-50 -9.5q-42 0 -75.5 22.5t-45.5 58.5q-13 37 15 121l472 1409q10 30 17.5 47t22 38t35.5 30.5t50 9.5q42 0 75.5 -22.5t45.5 -58.5z" />
    <glyph glyph-name="zero" unicode="0" 
d="M977 1011v-598q0 -99 -35 -181t-95 -134.5t-138 -81t-166 -28.5t-166 28.5t-138 81t-95 134.5t-35 181v598q0 99 35 181t95 134.5t138 81t166 28.5t166 -28.5t138 -81t95 -134.5t35 -181zM371 1013v-602q0 -87 47 -137.5t125 -50.5t125 50.5t47 137.5v602q0 87 -47 137.5
t-125 50.5t-125 -50.5t-47 -137.5z" />
    <glyph glyph-name="one" unicode="1" 
d="M177 886q-53 53 -34 115q11 35 64 88l276 276q67 67 140 67q59 0 96 -37q38 -39 38 -132v-1093q0 -82 -17 -116q-31 -62 -113 -62t-113 62q-17 34 -17 116v863l-117 -117q-32 -32 -49 -44.5t-38 -19.5q-60 -20 -116 34z" />
    <glyph glyph-name="two" unicode="2" 
d="M993 118q0 -73 -57 -103q-29 -15 -107 -15h-547q-34 0 -53 1.5t-43.5 10.5t-40.5 26q-36 36 -36 93q0 38 17 69.5t52 73.5l442 536q52 64 76 113.5t24 112.5q0 73 -45 118.5t-126 45.5q-68 0 -110.5 -31.5t-70.5 -103.5q-19 -47 -51 -74q-28 -22 -74 -22q-61 0 -93 39
q-31 38 -31 93q0 60 32.5 124.5t87.5 110.5q122 100 305 100q200 0 318.5 -103.5t118.5 -290.5q0 -60 -9.5 -106t-36 -94t-55 -86t-83.5 -104l-346 -416h378q78 0 107 -15q57 -30 57 -103z" />
    <glyph glyph-name="three" unicode="3" 
d="M106 308q0 61 34 97q36 39 95 39q51 0 80 -26q30 -27 49 -80q21 -60 60.5 -87t116.5 -27q81 0 135 52t54 144q0 90 -49.5 140.5t-142.5 54.5q-48 2 -74 16q-54 29 -54 98q0 68 54 97q29 14 74 16q83 3 131.5 49.5t48.5 130.5t-49 131t-126 47q-63 0 -99.5 -25t-59.5 -82
q-22 -56 -49 -79q-28 -25 -79 -25t-86 33.5t-35 89.5q0 49 19 98q29 76 84 125q115 101 307 101q123 0 220.5 -46t156 -138t58.5 -216q0 -208 -173 -300q185 -94 185 -330q0 -131 -60 -227t-160.5 -143.5t-228.5 -47.5q-113 0 -190 23.5t-141 78.5q-106 92 -106 218z" />
    <glyph glyph-name="four" unicode="4" 
d="M589 170v42h-370q-53 0 -84.5 7t-55.5 27q-44 38 -44 98q0 39 35 109l435 872q33 67 62 88q26 19 62 19q49 0 88 -33.5t39 -80.5q0 -36 -33 -102l-383 -768h249v119q0 82 17 116q31 62 113 62t113 -62q17 -34 17 -116v-119h38q78 0 107 -15q57 -30 57 -103t-57 -103
q-29 -15 -107 -15h-38v-42q0 -82 -17 -116q-31 -62 -113 -62t-113 62q-17 34 -17 116z" />
    <glyph glyph-name="five" unicode="5" 
d="M965 1306q0 -73 -57 -103q-29 -15 -107 -15h-422v-302q78 70 216 70q170 0 265 -95q76 -76 102 -168.5t26 -211.5q0 -132 -26 -217.5t-100 -159.5q-116 -116 -317 -116q-195 0 -312 99q-48 41 -77.5 98.5t-29.5 119.5q0 60 36 98q33 35 91 35q52 0 81 -26q28 -24 50 -80
q24 -59 61 -83.5t100 -24.5q82 0 127 45q55 55 55 212q0 127 -41 191t-135 64q-100 0 -157 -63q-24 -27 -52 -44q-28 -16 -70 -16q-57 0 -91 34q-38 38 -38 111v508q0 26 1 41.5t9.5 39.5t25.5 41t41 25.5t39.5 9.5t41.5 1h500q78 0 107 -15q57 -30 57 -103z" />
    <glyph glyph-name="six" unicode="6" 
d="M726 1318q0 -36 -33 -102l-190 -380q47 18 108 18q72 0 139.5 -29.5t119.5 -82t83.5 -133.5t31.5 -177q0 -205 -125 -324.5t-319 -119.5q-195 0 -319.5 117t-124.5 323q0 61 18.5 130.5t40 119.5t61.5 130l258 517q33 67 62 88q26 19 62 19q49 0 88 -33.5t39 -80.5z
M725 430q0 94 -50.5 151t-133.5 57q-81 0 -132.5 -55.5t-51.5 -152.5q0 -96 51.5 -151t132.5 -55t132.5 55t51.5 151z" />
    <glyph glyph-name="seven" unicode="7" 
d="M134 1388q17 17 41 25.5t39.5 9.5t41.5 1h580q56 0 86 -7t55 -30q40 -35 40 -95q0 -31 -28 -106l-403 -1074q-28 -72 -53 -95q-27 -25 -71 -25q-46 0 -84.5 28.5t-42.5 70.5q-4 40 22 107l371 990h-370v-52q0 -82 -17 -116q-31 -62 -113 -62t-113 62q-17 34 -17 116v130
q0 26 1 41.5t9.5 39.5t25.5 41z" />
    <glyph glyph-name="eight" unicode="8" 
d="M543 1436q120 0 219 -48.5t159 -142.5t60 -216q0 -184 -161 -294q180 -121 180 -321q0 -199 -129.5 -312.5t-327.5 -113.5t-327.5 113.5t-129.5 312.5q0 200 180 321q-161 110 -161 294q0 122 60 216t159 142.5t219 48.5zM543 842q76 0 127 51t51 129q0 76 -51 127.5
t-127 51.5t-127 -51.5t-51 -127.5q0 -78 51 -129t127 -51zM543 223q82 0 139.5 57.5t57.5 139.5t-57.5 139t-139.5 57t-139.5 -57t-57.5 -139t57.5 -139.5t139.5 -57.5z" />
    <glyph glyph-name="nine" unicode="9" 
d="M360 106q0 36 33 102l190 380q-47 -18 -108 -18q-72 0 -139.5 29.5t-119.5 82t-83.5 133.5t-31.5 177q0 205 125 324.5t319 119.5q195 0 319.5 -117t124.5 -323q0 -61 -18.5 -130.5t-40 -119.5t-61.5 -130l-258 -517q-33 -67 -62 -88q-26 -19 -62 -19q-49 0 -88 33.5
t-39 80.5zM361 994q0 -94 50.5 -151t133.5 -57q81 0 132.5 55.5t51.5 152.5q0 96 -51.5 151t-132.5 55t-132.5 -55t-51.5 -151z" />
    <glyph glyph-name="colon" unicode=":" horiz-adv-x="620" 
d="M509 168q0 -72 -52 -123t-124 -51t-123 51t-51 123t51 123t123 51t124 -51t52 -123zM509 699q0 -72 -52 -123t-124 -51t-123 51t-51 123t51 123t123 51t124 -51t52 -123z" />
    <glyph glyph-name="semicolon" unicode=";" horiz-adv-x="620" 
d="M490 241q6 -39 -19 -114l-87 -263q-24 -74 -53 -102q-32 -32 -82 -32q-43 0 -84.5 27t-48.5 76q-6 39 19 114l87 263q24 74 53 102q32 32 82 32q43 0 84.5 -27t48.5 -76zM538 698q0 -72 -52 -123t-124 -51t-123 51t-51 123t51 123t123 51t124 -51t52 -123z" />
    <glyph glyph-name="less" unicode="&#x3c;" 
d="M721 192l-476 232q-28 14 -44 24t-36 27.5t-29.5 41.5t-9.5 54t9.5 53.5t29.5 41t36 27.5t44 24l476 233q66 33 102 33q47 0 80.5 -39t33.5 -88q0 -36 -19 -62q-21 -29 -88 -62l-323 -161l323 -161q67 -33 88 -62q19 -26 19 -62q0 -49 -33.5 -88t-80.5 -39q-33 0 -102 33
z" />
    <glyph glyph-name="equal" unicode="=" 
d="M994 794q0 -73 -57 -103q-29 -15 -107 -15h-574q-78 0 -107 15q-57 30 -57 103t57 103q29 15 107 15h574q78 0 107 -15q57 -30 57 -103zM994 348q0 -73 -57 -103q-29 -15 -107 -15h-574q-78 0 -107 15q-57 30 -57 103t57 103q29 15 107 15h574q78 0 107 -15
q57 -30 57 -103z" />
    <glyph glyph-name="greater" unicode="&#x3e;" 
d="M841 424l-476 -232q-69 -33 -102 -33q-47 0 -80.5 39t-33.5 88q0 36 19 62q21 29 88 62l323 161l-323 161q-67 33 -88 62q-19 26 -19 62q0 49 33.5 88t80.5 39q36 0 102 -33l476 -233q28 -14 44 -24t36 -27.5t29.5 -41t9.5 -53.5t-9.5 -54t-29.5 -41.5t-36 -27.5t-44 -24
z" />
    <glyph glyph-name="question" unicode="?" horiz-adv-x="1046" 
d="M406 151q0 65 46 111t111 46t111 -46t46 -111t-46 -111t-111 -46t-111 46t-46 111zM974 1046q0 -77 -23 -131t-74 -121l-120 -157q-41 -53 -57 -116q-13 -46 -40 -75q-36 -38 -97 -38q-59 0 -97 40q-31 32 -31 89q0 48 16 89.5t56 92.5l149 188q58 73 58 139
q0 67 -43.5 111.5t-114.5 44.5q-78 0 -123 -48q-31 -32 -50 -95q-12 -38 -36 -66q-31 -32 -91 -32q-54 0 -87 35q-31 32 -31 92q0 54 29.5 119.5t85.5 117.5q121 111 300 111q117 0 212 -45.5t152 -135.5t57 -209z" />
    <glyph glyph-name="at" unicode="@" horiz-adv-x="1515" 
d="M821 461q0 -127 37.5 -191.5t128.5 -64.5t128 64.5t37 191.5t-37 191.5t-128 64.5t-128.5 -64.5t-37.5 -191.5zM363 923v-575q0 -62 11 -93.5t43 -69.5q25 -29 33.5 -48.5t8.5 -44.5q0 -54 -45 -93q-36 -32 -85 -32q-36 0 -61 18t-61 59q-50 58 -71.5 121t-21.5 169v599
q0 128 27.5 219t94.5 158t159 94.5t217 27.5h291q125 0 217 -27.5t159 -94.5t94.5 -158t27.5 -219v-776q0 -75 -16 -107q-14 -26 -42.5 -42t-64.5 -16q-39 0 -70 21q-30 20 -39 52q-5 15 -6 32q-49 -56 -106.5 -83t-139.5 -27q-155 0 -251 101q-59 62 -76.5 143t-17.5 230
q0 148 17 229.5t74 142.5q92 102 252 102q145 0 237 -99v87q0 135 -70 205t-201 70h-247q-131 0 -201 -70t-70 -205z" />
    <glyph glyph-name="A" unicode="A" horiz-adv-x="1272" 
d="M793 1304l411 -1090q16 -43 22 -68t0.5 -55t-29.5 -56q-40 -43 -100 -43q-45 0 -77 26q-18 15 -29.5 35.5t-29.5 69.5l-47 129h-556l-47 -129q-18 -49 -29.5 -69.5t-29.5 -35.5q-32 -26 -77 -26q-60 0 -100 43q-24 26 -29.5 56t0.5 55t22 68l411 1090q26 67 57 94
q38 34 100 34t100 -34q31 -27 57 -94zM636 1003l-191 -517h382z" />
    <glyph glyph-name="B" unicode="B" horiz-adv-x="1320" 
d="M764 0h-429q-28 0 -45 1.5t-42.5 10.5t-43.5 27t-27 43.5t-10.5 42.5t-1.5 45v1084q0 28 1.5 45t10.5 42.5t27 43.5t43.5 27t42.5 10.5t45 1.5h405q208 0 325 -107.5t117 -292.5q0 -107 -55.5 -185t-122.5 -109q37 -17 68.5 -41t62.5 -61.5t49 -93.5t18 -124
q0 -195 -120.5 -302.5t-317.5 -107.5zM445 248h291q90 0 138 50t48 126t-48 125t-138 49h-291v-350zM718 1176h-273v-328h273q87 0 135.5 44.5t48.5 119.5t-48.5 119.5t-135.5 44.5z" />
    <glyph glyph-name="C" unicode="C" horiz-adv-x="1233" 
d="M635 236q144 0 210 147q33 70 69 99q31 24 80 24q59 0 97 -38q37 -37 37 -106q0 -51 -29.5 -118t-92.5 -128q-68 -66 -154 -97t-211 -31q-231 0 -379 150q-42 42 -69.5 90t-43 92.5t-23 114.5t-9 124.5t-1.5 152.5t1.5 152.5t9 124.5t23 114.5t43 92.5t69.5 90
q148 150 379 150q125 0 211 -31t154 -97q63 -61 92.5 -128t29.5 -118q0 -69 -37 -106q-38 -38 -97 -38q-49 0 -80 24q-36 29 -69 99q-66 147 -210 147q-101 0 -169 -76q-44 -50 -57 -128t-13 -272t13 -272t57 -128q68 -76 169 -76z" />
    <glyph glyph-name="D" unicode="D" horiz-adv-x="1321" 
d="M335 0q-28 0 -45 1.5t-42.5 10.5t-43.5 27t-27 43.5t-10.5 42.5t-1.5 45v1084q0 28 1.5 45t10.5 42.5t27 43.5t43.5 27t42.5 10.5t45 1.5h346q146 0 248 -49.5t182 -158.5q62 -83 77 -188.5t15 -315.5t-15 -315.5t-77 -188.5q-80 -109 -182 -158.5t-248 -49.5h-346z
M445 1176v-928h212q138 0 208 88q37 46 47.5 121.5t10.5 254.5t-10.5 254.5t-47.5 121.5q-70 88 -208 88h-212z" />
    <glyph glyph-name="E" unicode="E" horiz-adv-x="1207" 
d="M335 0q-28 0 -45 1.5t-42.5 10.5t-43.5 27t-27 43.5t-10.5 42.5t-1.5 45v1084q0 28 1.5 45t10.5 42.5t27 43.5t43.5 27t42.5 10.5t45 1.5h610q78 0 109 -16q27 -14 43 -43t16 -65t-16 -65t-43 -43q-31 -16 -109 -16h-500v-334h404q78 0 109 -16q27 -14 43 -43t16 -65
t-16 -65t-43 -43q-31 -16 -109 -16h-404v-346h500q78 0 109 -16q27 -14 43 -43t16 -65t-16 -65t-43 -43q-31 -16 -109 -16h-610z" />
    <glyph glyph-name="F" unicode="F" horiz-adv-x="1178" 
d="M445 826h404q78 0 109 -16q27 -14 43 -43t16 -65t-16 -65t-43 -43q-31 -16 -109 -16h-404v-398q0 -51 -3.5 -74t-15.5 -48q-16 -30 -48.5 -48t-72.5 -18t-72.5 18t-48.5 48q-12 25 -15.5 48t-3.5 74v1074q0 28 1.5 45t10.5 42.5t27 43.5t43.5 27t42.5 10.5t45 1.5h611
q78 0 109 -16q27 -14 43 -43t16 -65t-16 -65t-43 -43q-31 -16 -109 -16h-501v-350z" />
    <glyph glyph-name="G" unicode="G" horiz-adv-x="1270" 
d="M396 712q0 -199 14 -276.5t55 -123.5q66 -76 179 -76q108 0 177 72q37 38 50.5 86t13.5 125h-100q-75 0 -109 17q-26 13 -42.5 42t-16.5 65t16 65t43 43q32 16 109 16h195q28 0 45 -1.5t42.5 -10.5t43.5 -27t27 -43.5t10.5 -42.5t1.5 -45v-15q0 -161 -28 -263t-104 -178
q-81 -81 -169.5 -117t-204.5 -36q-234 0 -382 150q-42 42 -69.5 90t-43 92.5t-23 114.5t-9 124.5t-1.5 152.5t1.5 152.5t9 124.5t23 114.5t43 92.5t69.5 90q148 150 379 150q125 0 211 -31t154 -97q63 -61 92.5 -128t29.5 -118q0 -69 -37 -106q-38 -38 -97 -38q-49 0 -80 24
q-36 29 -69 99q-66 147 -210 147q-101 0 -169 -76q-44 -50 -57 -128t-13 -272z" />
    <glyph glyph-name="H" unicode="H" horiz-adv-x="1372" 
d="M445 596v-416q0 -51 -3.5 -74t-15.5 -48q-16 -30 -48.5 -48t-72.5 -18t-72.5 18t-48.5 48q-12 25 -15.5 48t-3.5 74v1064q0 51 3.5 74t15.5 48q16 30 48.5 48t72.5 18t72.5 -18t48.5 -48q12 -25 15.5 -48t3.5 -74v-400h482v400q0 51 3.5 74t15.5 48q16 30 48.5 48
t72.5 18t72.5 -18t48.5 -48q12 -25 15.5 -48t3.5 -74v-1064q0 -51 -3.5 -74t-15.5 -48q-16 -30 -48.5 -48t-72.5 -18t-72.5 18t-48.5 48q-12 25 -15.5 48t-3.5 74v416h-482z" />
    <glyph glyph-name="I" unicode="I" horiz-adv-x="610" 
d="M445 1244v-1064q0 -51 -3.5 -74t-15.5 -48q-16 -30 -48.5 -48t-72.5 -18t-72.5 18t-48.5 48q-12 25 -15.5 48t-3.5 74v1064q0 51 3.5 74t15.5 48q16 30 48.5 48t72.5 18t72.5 -18t48.5 -48q12 -25 15.5 -48t3.5 -74z" />
    <glyph glyph-name="J" unicode="J" horiz-adv-x="1035" 
d="M389 236q105 0 164.5 62t59.5 182v764q0 51 3.5 74t15.5 48q16 30 48.5 48t72.5 18t72.5 -18t48.5 -48q12 -25 15.5 -48t3.5 -74v-776q0 -114 -41 -207t-111.5 -151.5t-160.5 -90t-191 -31.5q-167 0 -276 79q-63 46 -63 111q0 54 39 90q33 29 76 29q35 0 95 -30
q63 -31 129 -31z" />
    <glyph glyph-name="K" unicode="K" horiz-adv-x="1287" 
d="M1220 130q2 -34 -16.5 -65.5t-52.5 -50.5q-38 -22 -74 -22q-35 0 -62.5 17.5t-41 36.5t-36.5 60l-310 542l-182 -220v-248q0 -51 -3.5 -74t-15.5 -48q-16 -30 -48.5 -48t-72.5 -18t-72.5 18t-48.5 48q-12 25 -15.5 48t-3.5 74v1064q0 51 3.5 74t15.5 48q16 30 48.5 48
t72.5 18t72.5 -18t48.5 -48q12 -25 15.5 -48t3.5 -74v-431l444 535q40 48 65.5 66t61.5 18q47 0 85 -32q50 -41 50 -99q0 -28 -13 -52.5t-49 -67.5l-266 -322l352 -617q43 -75 45 -112z" />
    <glyph glyph-name="L" unicode="L" horiz-adv-x="1148" 
d="M335 0q-28 0 -45 1.5t-42.5 10.5t-43.5 27t-27 43.5t-10.5 42.5t-1.5 45v1074q0 51 3.5 74t15.5 48q16 30 48.5 48t72.5 18t72.5 -18t48.5 -48q12 -25 15.5 -48t3.5 -74v-996h485q78 0 109 -16q27 -14 43 -43t16 -65t-16 -65t-43 -43q-31 -16 -109 -16h-595z" />
    <glyph glyph-name="M" unicode="M" horiz-adv-x="1622" 
d="M811 270q-48 0 -77.5 22.5t-56.5 75.5l-232 457v-645q0 -51 -3.5 -74t-15.5 -48q-16 -30 -48.5 -48t-72.5 -18t-72.5 18t-48.5 48q-12 25 -15.5 48t-3.5 74v1079q0 93 42 135q38 38 94 38q49 0 83 -23q39 -25 71 -86l356 -678l356 678q32 61 71 86q34 23 83 23
q56 0 94 -38q42 -42 42 -135v-1079q0 -51 -3.5 -74t-15.5 -48q-16 -30 -48.5 -48t-72.5 -18t-72.5 18t-48.5 48q-12 25 -15.5 48t-3.5 74v645l-232 -457q-27 -53 -56.5 -75.5t-77.5 -22.5z" />
    <glyph glyph-name="N" unicode="N" horiz-adv-x="1423" 
d="M1258 1244v-1078q0 -93 -38 -131q-43 -43 -105 -43q-46 0 -81 29t-82 99l-507 748v-688q0 -51 -3.5 -74t-15.5 -48q-16 -30 -48.5 -48t-72.5 -18t-72.5 18t-48.5 48q-12 25 -15.5 48t-3.5 74v1078q0 92 38 131q43 43 105 43q46 0 81 -29t83 -99l506 -748v688q0 51 3.5 74
t15.5 48q16 30 48.5 48t72.5 18t72.5 -18t48.5 -48q12 -25 15.5 -48t3.5 -74z" />
    <glyph glyph-name="O" unicode="O" horiz-adv-x="1288" 
d="M644 -12q-234 0 -382 150q-42 42 -69.5 90t-43 92.5t-23 114.5t-9 124.5t-1.5 152.5t1.5 152.5t9 124.5t23 114.5t43 92.5t69.5 90q148 150 382 150t382 -150q42 -42 69.5 -90t43 -92.5t23 -114.5t9 -124.5t1.5 -152.5t-1.5 -152.5t-9 -124.5t-23 -114.5t-43 -92.5
t-69.5 -90q-148 -150 -382 -150zM644 1188q-113 0 -179 -76q-41 -46 -55 -123.5t-14 -276.5t14 -276t55 -123q68 -77 179 -77t179 77q41 46 55 123t14 276t-14 276.5t-55 123.5q-66 76 -179 76z" />
    <glyph glyph-name="P" unicode="P" horiz-adv-x="1258" 
d="M184 58q-12 25 -15.5 48t-3.5 74v1074q0 28 1.5 45t10.5 42.5t27 43.5t43.5 27t42.5 10.5t45 1.5h384q215 0 342.5 -128t127.5 -316t-127.5 -316t-342.5 -128h-274v-356q0 -51 -3.5 -74t-15.5 -48q-16 -30 -48.5 -48t-72.5 -18t-72.5 18t-48.5 48zM445 784h258
q94 0 150 54t56 142t-56 142t-150 54h-258v-392z" />
    <glyph glyph-name="Q" unicode="Q" horiz-adv-x="1288" 
d="M644 -12q-234 0 -382 150q-42 42 -69.5 90t-43 92.5t-23 114.5t-9 124.5t-1.5 152.5t1.5 152.5t9 124.5t23 114.5t43 92.5t69.5 90q148 150 382 150t382 -150q42 -42 69.5 -90t43 -92.5t23 -114.5t9 -124.5t1.5 -152.5q0 -202 -15 -310t-73 -194l43 -43q43 -43 53 -73
q18 -53 -28 -99t-99 -28q-30 10 -73 53l-46 46q-122 -76 -290 -76zM644 1188q-113 0 -179 -76q-41 -46 -55 -123.5t-14 -276.5t14 -276t55 -123q68 -77 179 -77q51 0 92 25l-63 64q-43 43 -53 73q-18 53 28 99t99 28q30 -10 73 -53l45 -44q27 73 27 284q0 199 -14 276.5
t-55 123.5q-66 76 -179 76z" />
    <glyph glyph-name="R" unicode="R" horiz-adv-x="1308" 
d="M445 567v-387q0 -51 -3.5 -74t-15.5 -48q-16 -30 -48.5 -48t-72.5 -18t-72.5 18t-48.5 48q-12 25 -15.5 48t-3.5 74v1074q0 28 1.5 45t10.5 42.5t27 43.5t43.5 27t42.5 10.5t45 1.5h389q106 0 194.5 -34.5t146.5 -94t90 -138.5t32 -168q0 -128 -68 -227.5t-190 -148.5
l213 -371q43 -75 45 -112q2 -34 -16.5 -65.5t-52.5 -50.5q-38 -22 -74 -22q-35 0 -62.5 17.5t-41 36.5t-36.5 60l-264 461h-195zM445 801h264q91 0 145.5 51.5t54.5 135.5t-54.5 136t-145.5 52h-264v-375z" />
    <glyph glyph-name="S" unicode="S" horiz-adv-x="1185" 
d="M646 581l-170 25q-181 27 -276 119q-102 99 -102 279q0 193 134 312.5t362 119.5q173 0 322 -69q114 -53 114 -139q0 -46 -32 -86q-33 -38 -83 -38q-42 0 -104 32q-106 56 -225 56q-105 0 -162 -49.5t-57 -122.5q0 -71 41 -109q47 -42 132 -55l167 -24q185 -27 273 -111
q110 -103 110 -301q0 -134 -70.5 -233t-189 -149t-269.5 -50q-114 0 -192 16.5t-162 56.5q-74 35 -108 70.5t-34 92.5q0 53 38 91q31 31 78 31q41 0 113 -38q78 -41 135.5 -57.5t134.5 -16.5q122 0 187.5 47t65.5 132q0 77 -43 119q-37 35 -128 49z" />
    <glyph glyph-name="T" unicode="T" horiz-adv-x="1138" 
d="M920 1176h-211v-996q0 -51 -3.5 -74t-15.5 -48q-16 -30 -48.5 -48t-72.5 -18t-72.5 18t-48.5 48q-12 25 -15.5 48t-3.5 74v996h-211q-78 0 -109 16q-27 14 -43 43t-16 65t16 65t43 43q31 16 109 16h702q78 0 109 -16q27 -14 43 -43t16 -65t-16 -65t-43 -43
q-31 -16 -109 -16z" />
    <glyph glyph-name="U" unicode="U" horiz-adv-x="1332" 
d="M666 -12q-223 0 -373.5 139t-150.5 361v756q0 51 3.5 74t15.5 48q16 30 48.5 48t72.5 18t72.5 -18t48.5 -48q12 -25 15.5 -48t3.5 -74v-746q0 -122 65.5 -192t178.5 -70t178.5 70t65.5 192v746q0 51 3.5 74t15.5 48q16 30 48.5 48t72.5 18t72.5 -18t48.5 -48
q12 -25 15.5 -48t3.5 -74v-756q0 -222 -150.5 -361t-373.5 -139z" />
    <glyph glyph-name="V" unicode="V" horiz-adv-x="1144" 
d="M421 129l-363 1086q-25 75 -19 114q7 49 48.5 76t84.5 27q50 0 82 -32q18 -18 28 -38t25 -64l265 -813l265 813q15 44 25 64t28 38q32 32 82 32q43 0 84.5 -27t48.5 -76q6 -39 -19 -114l-364 -1086q-25 -73 -56 -103q-38 -34 -94 -34q-57 0 -95 34q-31 30 -56 103z" />
    <glyph glyph-name="W" unicode="W" horiz-adv-x="1746" 
d="M873 884l-215 -740q-26 -89 -65 -120q-40 -32 -95 -32t-95 32q-44 34 -65 120l-270 1080q-12 48 -14 70t3 47q9 38 47 64.5t84 26.5q56 0 88 -37q16 -18 24 -38.5t20 -69.5l189 -760l228 788q17 55 45 84q33 32 91 32t91 -32q28 -29 45 -84l228 -788l189 760
q12 49 20 69.5t24 38.5q32 37 88 37q46 0 84 -26.5t47 -64.5q5 -25 3 -47t-14 -70l-270 -1080q-21 -86 -65 -120q-40 -32 -95 -32t-95 32q-39 31 -65 120z" />
    <glyph glyph-name="X" unicode="X" horiz-adv-x="1135" 
d="M88 1294q-2 34 16.5 65.5t52.5 50.5q38 22 74 22q27 0 48 -8t38 -26.5t27.5 -34t26.5 -45.5l196 -353l197 353q16 30 26.5 45.5t27.5 34t38 26.5t48 8q36 0 74 -22q34 -19 52.5 -50.5t16.5 -65.5q-2 -37 -45 -112l-264 -452l285 -488q43 -75 45 -112q2 -34 -16.5 -65.5
t-52.5 -50.5q-38 -22 -74 -22q-35 0 -62.5 17.5t-41 36.5t-36.5 60l-218 389l-217 -389q-23 -41 -36.5 -60t-41 -36.5t-62.5 -17.5q-36 0 -74 22q-34 19 -52.5 50.5t-16.5 65.5q2 37 45 112l284 488l-263 452q-43 75 -45 112z" />
    <glyph glyph-name="Y" unicode="Y" horiz-adv-x="1080" 
d="M540 -8q-40 0 -72.5 18t-48.5 48q-12 25 -15.5 48t-3.5 74v378l-322 642q-22 46 -29.5 66.5t-6.5 43.5q1 32 20 60.5t53 45.5q32 16 65 16q36 0 65 -21q19 -14 31.5 -32.5t34.5 -62.5l229 -462l229 462q22 44 34.5 62.5t31.5 32.5q29 21 65 21q33 0 65 -16
q34 -17 53 -45.5t20 -60.5q1 -23 -6.5 -43.5t-29.5 -66.5l-322 -642v-378q0 -51 -3.5 -74t-15.5 -48q-16 -30 -48.5 -48t-72.5 -18z" />
    <glyph glyph-name="Z" unicode="Z" horiz-adv-x="1131" 
d="M698 1176h-424q-78 0 -109 16q-27 14 -43 43t-16 65t16 65t43 43q31 16 109 16h574q36 0 57.5 -2t48.5 -11.5t46 -28.5q43 -43 43 -106q0 -45 -47 -120l-572 -908h452q78 0 109 -16q27 -14 43 -43t16 -65t-16 -65t-43 -43q-31 -16 -109 -16h-602q-36 0 -57.5 2
t-48.5 11.5t-46 28.5q-43 43 -43 106q0 45 47 120z" />
    <glyph glyph-name="bracketleft" unicode="[" horiz-adv-x="756" 
d="M681 -30q0 -73 -57 -103q-29 -15 -107 -15h-200q-26 0 -41.5 1t-39.5 9.5t-41 25.5t-25.5 41t-9.5 39.5t-1 41.5v1404q0 26 1 41.5t9.5 39.5t25.5 41t41 25.5t39.5 9.5t41.5 1h200q78 0 107 -15q57 -30 57 -103t-57 -103q-29 -15 -107 -15h-98v-1248h98q78 0 107 -15
q57 -30 57 -103z" />
    <glyph glyph-name="backslash" unicode="\" horiz-adv-x="807" 
d="M37 1499q12 36 45.5 58.5t75.5 22.5q29 0 50 -9.5t35.5 -30.5t22 -38t17.5 -47l472 -1409q28 -84 15 -121q-12 -36 -45.5 -58.5t-75.5 -22.5q-29 0 -50 9.5t-35.5 30.5t-22 38t-17.5 47l-472 1409q-28 84 -15 121z" />
    <glyph glyph-name="bracketright" unicode="]" horiz-adv-x="756" 
d="M75 -30q0 73 57 103q29 15 107 15h98v1248h-98q-78 0 -107 15q-57 30 -57 103t57 103q29 15 107 15h200q26 0 41.5 -1t39.5 -9.5t41 -25.5t25.5 -41t9.5 -39.5t1 -41.5v-1404q0 -26 -1 -41.5t-9.5 -39.5t-25.5 -41t-41 -25.5t-39.5 -9.5t-41.5 -1h-200q-78 0 -107 15
q-57 30 -57 103z" />
    <glyph glyph-name="asciicircum" unicode="^" 
d="M543 1063l-167 -335q-33 -67 -62 -88q-26 -19 -62 -19q-49 0 -88 33.5t-39 80.5q0 36 33 102l239 476q15 29 24.5 44.5t27.5 36t41 29.5t53 9t53 -9t41 -29.5t27.5 -36t24.5 -44.5l239 -476q33 -66 33 -102q0 -47 -39 -80.5t-88 -33.5q-36 0 -62 19q-29 21 -62 88z" />
    <glyph glyph-name="underscore" unicode="_" horiz-adv-x="1204" 
d="M162 -182h880q61 0 88 -14q48 -25 48 -86t-48 -86q-27 -14 -88 -14h-880q-61 0 -88 14q-48 25 -48 86t48 86q27 14 88 14z" />
    <glyph glyph-name="grave" unicode="`" 
d="M579 1198q-29 -18 -61 -18t-57 18q-22 16 -55 69l-85 136q-37 59 -39 90q-5 58 54 96q28 18 61 18q31 0 57 -18q22 -16 55 -69l85 -136q37 -59 39 -90q5 -58 -54 -96z" />
    <glyph glyph-name="a" unicode="a" horiz-adv-x="1065" 
d="M487 834q-83 0 -167 -50q-46 -27 -86 -27q-46 0 -74 35q-29 35 -29 78q0 73 97 124q114 60 263 60q218 0 328.5 -92.5t110.5 -275.5v-517q0 -51 -3.5 -73t-15.5 -44q-14 -27 -44.5 -43.5t-67.5 -16.5q-51 0 -83 30q-26 24 -38 69q-58 -57 -114.5 -80t-143.5 -23
q-174 0 -266 94q-86 86 -86 234q0 132 92 217t268 85h242v52q0 85 -45 124.5t-138 39.5zM670 384v56h-198q-154 0 -154 -120q0 -56 39.5 -87t118.5 -31q53 0 88 10t66 40q23 21 31.5 50.5t8.5 81.5z" />
    <glyph glyph-name="b" unicode="b" horiz-adv-x="1119" 
d="M145 169v1085q0 82 17 116q31 62 113 62t113 -62q17 -34 17 -116v-304q90 104 252 104q161 0 252 -94q36 -37 59 -85t33 -109.5t13 -114t3 -129.5q0 -78 -3 -131t-13 -114.5t-33 -109.5t-59 -85q-91 -94 -253 -94q-85 0 -146 25t-113 83q-12 -50 -38 -74q-32 -30 -83 -30
q-37 0 -67.5 16.5t-44.5 43.5q-12 22 -15.5 44t-3.5 73zM757 522q0 71 -6 118t-23.5 91t-54 65.5t-92.5 21.5t-92.5 -21.5t-54 -65.5t-23.5 -91t-6 -118q0 -56 3 -96t14 -80.5t30 -65.5t52 -40.5t79 -15.5q45 0 77 15.5t50.5 40.5t29.5 65.5t14 80.5t3 96z" />
    <glyph glyph-name="c" unicode="c" horiz-adv-x="962" 
d="M561 1054q117 0 204 -51q126 -64 126 -147q0 -46 -37 -85q-32 -34 -80 -34q-41 0 -90 36q-63 45 -125 45q-92 -2 -147 -68q-58 -72 -58 -228q0 -158 58 -230q56 -68 147 -68q65 0 125 44q51 38 90 38q47 0 80 -35q37 -37 37 -85q0 -79 -126 -148q-92 -50 -206 -50
q-67 0 -128.5 14.5t-124.5 52.5t-108.5 96.5t-74.5 153.5t-29 217t29 217t75 153t109 95.5t125 52t129 14.5z" />
    <glyph glyph-name="d" unicode="d" horiz-adv-x="1119" 
d="M974 1254v-1085q0 -51 -3.5 -73t-15.5 -44q-14 -27 -44.5 -43.5t-67.5 -16.5q-51 0 -83 30q-26 24 -38 74q-52 -58 -113 -83t-146 -25q-162 0 -253 94q-36 37 -59 85t-33 109.5t-13 114.5t-3 131q0 77 3 129.5t13 114t33 109.5t59 85q91 94 252 94q162 0 252 -104v304
q0 82 17 116q31 62 113 62t113 -62q17 -34 17 -116zM362 522q0 -56 3 -96t14 -80.5t29.5 -65.5t50.5 -40.5t77 -15.5q46 0 79 15.5t52 40.5t30 65.5t14 80.5t3 96q0 71 -6 118t-23.5 91t-54 65.5t-92.5 21.5t-92.5 -21.5t-54 -65.5t-23.5 -91t-6 -118z" />
    <glyph glyph-name="e" unicode="e" horiz-adv-x="1091" 
d="M745 618q-3 68 -23 113q-22 49 -67 78t-108 29t-108 -29t-66 -78q-22 -48 -23 -113h395zM851 440h-501q0 -104 60 -168t170 -64q105 0 180 56q55 39 97 39q39 0 72 -32.5t33 -76.5q0 -66 -102 -134q-106 -72 -284 -72q-78 0 -145 14.5t-131 52t-108 96.5t-71 153.5
t-27 216.5q0 251 123.5 392t329.5 141q205 0 325.5 -130.5t127.5 -334.5q2 -79 -35 -116q-15 -15 -36.5 -23t-36.5 -9t-41 -1z" />
    <glyph glyph-name="f" unicode="f" horiz-adv-x="703" 
d="M200 1013v128q0 59 17 111t52 94.5t94.5 67.5t137.5 25h14q73 0 107 -18q52 -27 52 -93q0 -67 -52 -93q-26 -13 -78 -16q-84 -5 -84 -92v-114h78q61 0 88 -14q48 -25 48 -86t-48 -86q-27 -14 -88 -14h-78v-643q0 -82 -17 -116q-31 -62 -113 -62t-113 62q-17 34 -17 116
v643h-27q-61 0 -88 14q-48 25 -48 86t48 86q27 14 88 14h27z" />
    <glyph glyph-name="g" unicode="g" horiz-adv-x="1109" 
d="M506 -394q-156 0 -262 58q-104 58 -104 132q0 47 33 79t71 32q42 0 97 -33q80 -48 154 -48t123 33t67.5 79.5t18.5 103.5v106q-93 -104 -248 -104q-156 0 -248 92q-67 67 -86.5 160.5t-19.5 253.5t19.5 252.5t86.5 159.5q92 92 250 92q83 0 142 -25.5t111 -84.5
q12 51 39 76q32 30 83 30q37 0 67.5 -16.5t44.5 -43.5q12 -22 15.5 -44t3.5 -73v-835q0 -190 -125.5 -311t-332.5 -121zM704 550q0 47 -3 81.5t-13.5 71.5t-28.5 60.5t-50 39t-77 15.5t-77 -15.5t-49.5 -39t-27.5 -61t-13 -71.5t-3 -81t3 -81.5t13 -72.5t27.5 -61.5
t49.5 -39t77 -15.5t77 15.5t50 39.5t28.5 61.5t13.5 72t3 81.5z" />
    <glyph glyph-name="h" unicode="h" horiz-adv-x="1146" 
d="M1011 170q0 -82 -17 -116q-31 -62 -113 -62t-113 62q-17 34 -17 116v460q0 97 -50.5 142.5t-121.5 45.5t-122.5 -45.5t-51.5 -142.5v-460q0 -82 -17 -116q-31 -62 -113 -62t-113 62q-17 34 -17 116v1084q0 82 17 116q31 62 113 62t113 -62q17 -34 17 -116v-308
q105 108 254 108q154 0 246 -92q59 -59 82.5 -131t23.5 -165v-496z" />
    <glyph glyph-name="i" unicode="i" horiz-adv-x="550" 
d="M405 170q0 -82 -17 -116q-31 -62 -113 -62t-113 62q-17 34 -17 116v672q0 82 17 116q31 62 113 62t113 -62q17 -34 17 -116v-672zM125 1335q0 62 44 106t106 44t106 -44t44 -106t-44 -106t-106 -44t-106 44t-44 106z" />
    <glyph glyph-name="j" unicode="j" horiz-adv-x="550" 
d="M125 1335q0 62 44 106t106 44t106 -44t44 -106t-44 -106t-106 -44t-106 44t-44 106zM145 -78v920q0 82 17 116q31 62 113 62t113 -62q17 -34 17 -116v-934q0 -59 -17 -111t-52 -94.5t-94.5 -67.5t-137.5 -25h-14q-72 0 -107 18q-52 27 -52 93q0 67 52 93q26 13 78 16
q84 5 84 92z" />
    <glyph glyph-name="k" unicode="k" horiz-adv-x="1053" 
d="M990 113q0 -61 -61 -99q-35 -22 -70 -22q-39 0 -65 22t-59 75l-210 333l-120 -138v-114q0 -82 -17 -116q-31 -62 -113 -62t-113 62q-17 34 -17 116v1084q0 82 17 116q31 62 113 62t113 -62q17 -34 17 -116v-640l316 361q37 42 61 58.5t55 16.5q46 0 81 -31q41 -35 41 -88
q0 -25 -13 -49.5t-47 -62.5l-193 -219l240 -379q44 -71 44 -108z" />
    <glyph glyph-name="l" unicode="l" horiz-adv-x="637" 
d="M397 1254v-942q0 -87 84 -92q52 -3 78 -16q52 -26 52 -93q0 -66 -52 -93q-35 -18 -107 -18h-14q-78 0 -137.5 25t-94.5 67.5t-52 94.5t-17 111v956q0 82 17 116q31 62 113 62t113 -62q17 -34 17 -116z" />
    <glyph glyph-name="m" unicode="m" horiz-adv-x="1752" 
d="M398 944q49 53 118 81.5t143 28.5q179 0 276 -132q66 69 140.5 100.5t171.5 31.5q78 0 145 -24t111 -68q114 -114 114 -296v-496q0 -82 -17 -116q-31 -62 -113 -62t-113 62q-17 34 -17 116v460q0 97 -50.5 142.5t-121.5 45.5q-70 0 -122 -44.5t-52 -137.5v-466
q0 -82 -17 -116q-31 -62 -113 -62t-113 62q-17 34 -17 116v460q0 97 -50.5 142.5t-121.5 45.5t-122.5 -45.5t-51.5 -142.5v-460q0 -82 -17 -116q-31 -62 -113 -62t-113 62q-17 34 -17 116v703q0 51 3.5 73t15.5 44q14 27 44.5 43.5t67.5 16.5q51 0 83 -30q27 -25 39 -76z
" />
    <glyph glyph-name="n" unicode="n" horiz-adv-x="1146" 
d="M398 944q48 53 117.5 81.5t143.5 28.5q154 0 246 -92q59 -59 82.5 -131t23.5 -165v-496q0 -82 -17 -116q-31 -62 -113 -62t-113 62q-17 34 -17 116v460q0 97 -50.5 142.5t-121.5 45.5t-122.5 -45.5t-51.5 -142.5v-460q0 -82 -17 -116q-31 -62 -113 -62t-113 62
q-17 34 -17 116v703q0 51 3.5 73t15.5 44q14 27 44.5 43.5t67.5 16.5q51 0 83 -30q27 -25 39 -76z" />
    <glyph glyph-name="o" unicode="o" horiz-adv-x="1088" 
d="M362 521q0 -95 12 -155.5t49 -96.5q45 -45 121 -45t121 45q37 36 49 96.5t12 155.5t-12 155.5t-49 96.5q-45 45 -121 45t-121 -45q-37 -36 -49 -96.5t-12 -155.5zM986 521q0 -149 -25.5 -241t-93.5 -164q-122 -128 -323 -128t-323 128q-68 72 -93.5 164t-25.5 241
t25.5 241t93.5 164q122 128 323 128t323 -128q68 -72 93.5 -164t25.5 -241z" />
    <glyph glyph-name="p" unicode="p" horiz-adv-x="1119" 
d="M145 -212v1085q0 51 3.5 73t15.5 44q14 27 44.5 43.5t67.5 16.5q51 0 83 -30q26 -24 38 -74q52 58 113 83t146 25q162 0 253 -94q36 -37 59 -85t33 -109.5t13 -114.5t3 -131q0 -77 -3 -129.5t-13 -114t-33 -109.5t-59 -85q-91 -94 -252 -94q-162 0 -252 104v-304
q0 -82 -17 -116q-31 -62 -113 -62t-113 62q-17 34 -17 116zM757 520q0 56 -3 96t-14 80.5t-29.5 65.5t-50.5 40.5t-77 15.5q-46 0 -79 -15.5t-52 -40.5t-30 -65.5t-14 -80.5t-3 -96q0 -71 6 -118t23.5 -91t54 -65.5t92.5 -21.5t92.5 21.5t54 65.5t23.5 91t6 118z" />
    <glyph glyph-name="q" unicode="q" horiz-adv-x="1119" 
d="M974 873v-1085q0 -82 -17 -116q-31 -62 -113 -62t-113 62q-17 34 -17 116v304q-90 -104 -252 -104q-161 0 -252 94q-36 37 -59 85t-33 109.5t-13 114t-3 129.5q0 78 3 131t13 114.5t33 109.5t59 85q91 94 253 94q85 0 146 -25t113 -83q12 50 38 74q32 30 83 30
q37 0 67.5 -16.5t44.5 -43.5q12 -22 15.5 -44t3.5 -73zM362 520q0 -71 6 -118t23.5 -91t54 -65.5t92.5 -21.5t92.5 21.5t54 65.5t23.5 91t6 118q0 56 -3 96t-14 80.5t-30 65.5t-52 40.5t-79 15.5q-45 0 -77 -15.5t-50.5 -40.5t-29.5 -65.5t-14 -80.5t-3 -96z" />
    <glyph glyph-name="r" unicode="r" horiz-adv-x="913" 
d="M398 941q40 48 107 80.5t141 32.5q107 0 180 -48q66 -44 66 -109q0 -56 -39 -95q-36 -36 -87 -36q-36 0 -89 27q-52 27 -99 27q-71 0 -122 -49.5t-51 -142.5v-458q0 -82 -17 -116q-31 -62 -113 -62t-113 62q-17 34 -17 116v703q0 51 3.5 73t15.5 44q14 27 44.5 43.5
t67.5 16.5q51 0 83 -30q31 -28 39 -79z" />
    <glyph glyph-name="s" unicode="s" horiz-adv-x="1001" 
d="M498 1054q148 0 269 -50q56 -22 83 -51q27 -30 27 -73q0 -46 -34 -80q-31 -31 -73 -31q-29 0 -76 22q-113 52 -202 52q-72 0 -109.5 -29.5t-37.5 -73.5t27 -65t81 -26l163 -16q153 -14 232 -92.5t79 -212.5q0 -165 -123.5 -252.5t-317.5 -87.5q-121 0 -205.5 22.5
t-155.5 70.5q-63 42 -63 100q0 55 42 89q32 26 69 26q35 0 86 -30q103 -61 231 -61q78 0 131 28.5t53 83.5q0 86 -110 97l-164 15q-306 29 -306 294q0 79 33 142.5t89.5 104t128.5 62.5t153 22z" />
    <glyph glyph-name="t" unicode="t" horiz-adv-x="732" 
d="M197 298v514h-26q-61 0 -88 14q-48 25 -48 86t48 86q27 14 88 14h26v139q0 82 17 116q31 62 113 62t113 -62q17 -34 17 -116v-139h78q61 0 88 -14q48 -25 48 -86t-48 -86q-27 -14 -88 -14h-78v-500q0 -87 84 -92q52 -3 78 -16q52 -26 52 -93q0 -66 -52 -93
q-35 -18 -107 -18h-14q-78 0 -137.5 25t-94.5 67.5t-52 94.5t-17 111z" />
    <glyph glyph-name="u" unicode="u" horiz-adv-x="1146" 
d="M748 98q-48 -53 -117.5 -81.5t-143.5 -28.5q-154 0 -246 92q-59 59 -82.5 131t-23.5 165v496q0 82 17 116q31 62 113 62t113 -62q17 -34 17 -116v-460q0 -97 50.5 -142.5t121.5 -45.5t122.5 45.5t51.5 142.5v460q0 82 17 116q31 62 113 62t113 -62q17 -34 17 -116v-703
q0 -51 -3.5 -73t-15.5 -44q-14 -27 -44.5 -43.5t-67.5 -16.5q-51 0 -83 30q-27 25 -39 76z" />
    <glyph glyph-name="v" unicode="v" horiz-adv-x="918" 
d="M305 131l-244 717q-28 84 -15 121q12 36 45.5 58.5t75.5 22.5q29 0 50 -9.5t35.5 -30.5t22 -38t17.5 -47l167 -507l167 507q10 30 17.5 47t22 38t35.5 30.5t50 9.5q42 0 75.5 -22.5t45.5 -58.5q13 -37 -15 -121l-244 -717q-26 -77 -59 -106q-37 -33 -95 -33t-95 33
q-33 29 -59 106z" />
    <glyph glyph-name="w" unicode="w" horiz-adv-x="1490" 
d="M745 660l-167 -525q-25 -83 -58 -110q-41 -33 -94 -33t-94 33q-34 28 -58 110l-212 717q-22 72 -13 109q9 38 43.5 63.5t76.5 25.5q50 0 83 -33q15 -16 24 -35t21 -63l147 -519l162 517q25 78 55 104q32 29 84 29t84 -29q30 -26 55 -104l162 -517l147 519q12 44 21 63
t24 35q33 33 83 33q42 0 76.5 -25.5t43.5 -63.5q9 -37 -13 -109l-212 -717q-24 -82 -58 -110q-41 -33 -94 -33t-94 33q-33 27 -58 110z" />
    <glyph glyph-name="x" unicode="x" horiz-adv-x="924" 
d="M67 113q0 41 44 108l200 305l-192 295q-44 67 -44 108q0 61 61 99q35 22 70 22q39 0 65 -22t59 -75l133 -216l132 216q32 52 58 74.5t66 22.5q35 0 70 -22q61 -38 61 -99q0 -39 -44 -108l-190 -297l197 -303q44 -67 44 -108q0 -61 -61 -99q-35 -22 -70 -22q-39 0 -65 22
t-59 75l-139 228l-141 -228q-33 -53 -59 -75t-65 -22q-35 0 -70 22q-61 38 -61 99z" />
    <glyph glyph-name="y" unicode="y" horiz-adv-x="918" 
d="M178 -152q41 0 69 21t46 75l37 111l-269 793q-28 84 -15 121q12 36 45.5 58.5t75.5 22.5q29 0 50 -9.5t35.5 -30.5t22 -38t17.5 -47l166 -516l168 516q10 30 17.5 47t22 38t35.5 30.5t50 9.5q42 0 75.5 -22.5t45.5 -58.5q13 -37 -15 -121l-351 -1019q-26 -79 -79 -133
q-81 -82 -213 -82q-69 0 -100 16q-57 30 -57 103t57 103q24 12 64 12z" />
    <glyph glyph-name="z" unicode="z" horiz-adv-x="941" 
d="M84 924q0 73 57 103q29 15 107 15h472q75 0 108 -19q26 -14 39.5 -39t13.5 -52q0 -33 -10.5 -57.5t-42.5 -67.5l-422 -571h312q78 0 107 -15q57 -30 57 -103t-57 -103q-29 -15 -107 -15h-498q-75 0 -108 19q-26 14 -39.5 39t-13.5 52q0 33 10.5 57.5t42.5 67.5l418 571
h-282q-78 0 -107 15q-57 30 -57 103z" />
    <glyph glyph-name="braceleft" unicode="{" horiz-adv-x="914" 
d="M79 712q0 52 32 84q15 15 36 21.5t70 15.5q40 6 65 33q35 35 35 120v290q0 138 82 221q74 74 215 74h63q74 0 104 -15q25 -12 41 -39.5t16 -61.5q0 -35 -15.5 -62t-40.5 -40q-32 -16 -79 -16q-68 0 -95 -26q-31 -30 -31 -129v-270q0 -51 -13 -88.5t-38 -59.5t-42.5 -31.5
t-44.5 -20.5q27 -11 44.5 -20.5t42.5 -31.5t38 -59.5t13 -88.5v-270q0 -99 31 -129q27 -26 95 -26q47 0 79 -16q25 -13 40.5 -40t15.5 -62q0 -34 -16 -61.5t-41 -39.5q-30 -15 -104 -15h-63q-141 0 -215 74q-82 83 -82 221v290q0 85 -35 120q-25 27 -65 33q-49 9 -70 15.5
t-36 21.5q-32 32 -32 84z" />
    <glyph glyph-name="bar" unicode="|" horiz-adv-x="700" 
d="M480 22q0 -82 -17 -116q-31 -62 -113 -62t-113 62q-17 34 -17 116v1380q0 82 17 116q31 62 113 62t113 -62q17 -34 17 -116v-1380z" />
    <glyph glyph-name="braceright" unicode="}" horiz-adv-x="914" 
d="M835 712q0 -52 -32 -84q-15 -15 -36 -21.5t-70 -15.5q-40 -6 -65 -33q-35 -35 -35 -120v-290q0 -138 -82 -221q-74 -74 -215 -74h-63q-74 0 -104 15q-25 12 -41 39.5t-16 61.5q0 35 15.5 62t40.5 40q32 16 79 16q68 0 95 26q31 30 31 129v270q0 51 13 88.5t38 59.5
t42.5 31.5t44.5 20.5q-27 11 -44.5 20.5t-42.5 31.5t-38 59.5t-13 88.5v270q0 99 -31 129q-27 26 -95 26q-47 0 -79 16q-25 13 -40.5 40t-15.5 62q0 34 16 61.5t41 39.5q30 15 104 15h63q141 0 215 -74q82 -83 82 -221v-290q0 -85 35 -120q25 -27 65 -33q49 -9 70 -15.5
t36 -21.5q32 -32 32 -84z" />
    <glyph glyph-name="asciitilde" unicode="~" horiz-adv-x="1213" 
d="M1060 487q-61 -54 -118.5 -75t-132.5 -21q-107 0 -234 66q-93 49 -163 49q-65 0 -131 -52q-38 -31 -78 -31q-51 0 -87 42q-30 36 -30 79q0 59 66 117q62 53 119.5 74.5t132.5 21.5q108 0 233 -66q93 -49 163 -49q68 0 131 52q40 31 79 31q50 0 86 -43q31 -35 31 -78
q0 -60 -67 -117z" />
    <glyph glyph-name="uni00A0" unicode="&#xa0;" horiz-adv-x="464" 
 />
    <glyph glyph-name="exclamdown" unicode="&#xa1;" horiz-adv-x="694" 
d="M171 -202v617q0 51 3.5 74t15.5 48q16 30 48.5 48t72.5 18t72.5 -18t48.5 -48q12 -25 15.5 -48t3.5 -74v-617q0 -51 -3.5 -74t-15.5 -48q-16 -30 -48.5 -48t-72.5 -18t-72.5 18t-48.5 48q-12 25 -15.5 48t-3.5 74zM153 892q0 64 46.5 110t111.5 46t110.5 -46t45.5 -110
q0 -65 -46 -111.5t-110 -46.5q-65 0 -111.5 47t-46.5 111z" />
    <glyph glyph-name="cent" unicode="&#xa2;" horiz-adv-x="962" 
d="M564 -8q-73 0 -103 57q-15 29 -15 107v53q-71 15 -130.5 49.5t-111.5 94.5t-81 157t-29 222q0 100 20 183t52.5 139.5t79 98t95.5 64.5t105 35v16q0 78 15 107q30 57 103 57t103 -57q15 -29 15 -107v-19q41 -13 83 -36q126 -67 126 -147q0 -46 -37 -85q-32 -34 -80 -34
q-41 0 -90 36q-63 45 -125 45q-92 -2 -147 -68q-58 -72 -58 -228q0 -158 58 -230q56 -68 147 -68q65 0 125 44q51 38 90 38q47 0 80 -35q37 -37 37 -85q0 -79 -126 -148q-38 -21 -83 -35v-57q0 -78 -15 -107q-30 -57 -103 -57z" />
    <glyph glyph-name="sterling" unicode="&#xa3;" horiz-adv-x="1212" 
d="M137 608q-48 25 -48 86q0 63 48 86q27 14 88 14h28v162q0 114 41.5 207t112 151.5t160.5 90t191 31.5q164 0 281 -75q83 -53 83 -132q0 -43 -24 -77q-33 -46 -80 -46q-38 0 -94 32q-83 50 -165 50q-105 0 -165.5 -62t-60.5 -182v-150h136q60 0 87 -14q48 -23 48 -86
q0 -61 -48 -86q-27 -14 -87 -14h-136v-346h430q78 0 109 -16q27 -14 43 -43t16 -65t-16 -65t-43 -43q-31 -16 -109 -16h-540q-28 0 -45 1.5t-42.5 10.5t-43.5 27t-27 43.5t-10.5 42.5t-1.5 45v424h-28q-61 0 -88 14z" />
    <glyph glyph-name="currency" unicode="&#xa4;" horiz-adv-x="1338" 
d="M1175 1077q53 -53 34 -115q-11 -35 -64 -88l-70 -70q63 -110 63 -232q0 -125 -64 -234l71 -70q53 -53 64 -88q19 -62 -34 -115q-56 -54 -116 -34q-21 7 -38 19.5t-49 44.5l-71 70q-107 -63 -233 -63q-125 0 -232 63l-70 -70q-32 -32 -49 -44.5t-38 -19.5q-60 -20 -116 34
q-53 53 -34 115q11 35 64 88l70 70q-65 110 -65 234q0 122 65 232l-70 70q-53 53 -64 88q-19 62 34 115q56 54 116 34q21 -7 38 -19.5t49 -44.5l70 -69q109 64 232 64q126 0 234 -65l70 70q32 32 49 44.5t38 19.5q60 20 116 -34zM904 572q0 97 -69 165.5t-167 68.5t-166 -68
t-68 -166t68 -166t166 -68t167 68.5t69 165.5z" />
    <glyph glyph-name="yen" unicode="&#xa5;" horiz-adv-x="1120" 
d="M560 -8q-40 0 -72.5 18t-48.5 48q-12 25 -15.5 48t-3.5 74v120h-188q-61 0 -88 14q-48 25 -48 86t48 86q27 14 88 14h188v86l-37 72h-151q-61 0 -88 14q-48 25 -48 86t48 86q27 14 88 14h50l-168 342q-22 46 -29.5 66.5t-6.5 43.5q1 32 20 60.5t53 45.5q32 16 65 16
q36 0 65 -21q19 -14 31.5 -32.5t34.5 -62.5l213 -432l213 432q22 44 34.5 62.5t31.5 32.5q29 21 65 21q33 0 65 -16q34 -17 53 -45.5t20 -60.5q1 -23 -6.5 -43.5t-29.5 -66.5l-168 -342h50q61 0 88 -14q48 -25 48 -86t-48 -86q-27 -14 -88 -14h-151l-37 -72v-86h188
q61 0 88 -14q48 -25 48 -86t-48 -86q-27 -14 -88 -14h-188v-120q0 -51 -3.5 -74t-15.5 -48q-16 -30 -48.5 -48t-72.5 -18z" />
    <glyph glyph-name="brokenbar" unicode="&#xa6;" horiz-adv-x="700" 
d="M220 1042v360q0 82 17 116q31 62 113 62t113 -62q17 -34 17 -116v-360q0 -82 -17 -116q-31 -62 -113 -62t-113 62q-17 34 -17 116zM220 22v360q0 82 17 116q31 62 113 62t113 -62q17 -34 17 -116v-360q0 -82 -17 -116q-31 -62 -113 -62t-113 62q-17 34 -17 116z" />
    <glyph glyph-name="section" unicode="&#xa7;" horiz-adv-x="1067" 
d="M539 109l-120 40q-154 51 -225.5 135.5t-71.5 234.5q0 105 56 186t126 120q-152 80 -152 264q0 145 99.5 246t283.5 101q216 0 316 -125q62 -77 62 -158q0 -41 -17 -72q-31 -57 -101 -57q-57 0 -91 34q-22 22 -32 65q-19 95 -137 95q-66 0 -102.5 -31.5t-36.5 -86.5
q0 -51 32 -84t101 -55l119 -39q153 -50 225.5 -136t72.5 -235q0 -105 -55.5 -186t-123.5 -119q161 -80 161 -274q0 -89 -33.5 -160.5t-90 -115.5t-126.5 -67t-146 -23q-176 0 -286 98q-95 84 -95 191q0 43 17 74q14 26 42 41.5t63 15.5q54 0 86 -32q23 -23 32 -67
q21 -97 141 -97q70 0 108 34t38 96q0 102 -139 149zM534 357q72 0 116 46q46 49 46 132q0 85 -46 132q-43 46 -116 46t-116 -46q-46 -47 -46 -132q0 -83 46 -132q44 -46 116 -46z" />
    <glyph glyph-name="dieresis" unicode="&#xa8;" 
d="M903 1334q0 -56 -39.5 -95t-94.5 -39t-94.5 39t-39.5 95t39.5 95t94.5 39t94.5 -39t39.5 -95zM451 1334q0 -56 -39.5 -95t-94.5 -39t-94.5 39t-39.5 95t39.5 95t94.5 39t94.5 -39t39.5 -95z" />
    <glyph glyph-name="copyright" unicode="&#xa9;" horiz-adv-x="1688" 
d="M120 712q0 197 97 363.5t263.5 263.5t363.5 97t363.5 -97t263.5 -263.5t97 -363.5t-97 -363.5t-263.5 -263.5t-363.5 -97t-363.5 97t-263.5 263.5t-97 363.5zM1400 712q0 159 -73.5 289t-201 203.5t-281.5 73.5t-281.5 -73.5t-201 -203.5t-73.5 -289t73.5 -289
t201 -203.5t281.5 -73.5t281.5 73.5t201 203.5t73.5 289zM515 712q0 179 97.5 277.5t247.5 98.5q127 0 199 -69q36 -36 36 -68q0 -33 -21 -53q-22 -22 -53 -22q-28 0 -64 28q-47 34 -97 34q-87 0 -132.5 -59.5t-45.5 -166.5t45.5 -166.5t132.5 -59.5q50 0 97 34q36 28 64 28
q31 0 53 -22q21 -20 21 -53q0 -32 -36 -68q-72 -69 -199 -69q-150 0 -247.5 98.5t-97.5 277.5z" />
    <glyph glyph-name="ordfeminine" unicode="&#xaa;" horiz-adv-x="907" 
d="M98 844q0 105 73 171.5t213 66.5h197v53q0 68 -38 100t-119 32q-44 0 -74.5 -10.5t-65.5 -34.5q-37 -24 -68 -24q-33 0 -52 22q-21 24 -21 60q0 60 88 107q79 43 201 43q169 0 255.5 -73t86.5 -215v-416q0 -59 -14 -84q-24 -47 -83 -47q-72 0 -92 70q-49 -46 -93 -64
t-113 -18q-137 0 -212 75q-69 69 -69 186zM581 898v52h-172q-62 0 -93 -26.5t-31 -74.5q0 -100 134 -100q89 0 129 40q33 33 33 109z" />
    <glyph glyph-name="guillemotleft" unicode="&#xab;" horiz-adv-x="1286" 
d="M581 882q53 -53 34 -115q-11 -35 -64 -88l-138 -138l138 -138q53 -53 64 -88q19 -62 -34 -115q-56 -54 -116 -34q-21 7 -38 19.5t-49 44.5l-311 311l311 311q32 32 49 44.5t38 19.5q60 20 116 -34zM1137 882q53 -53 34 -115q-11 -35 -64 -88l-138 -138l138 -138
q53 -53 64 -88q19 -62 -34 -115q-56 -54 -116 -34q-21 7 -38 19.5t-49 44.5l-311 311l311 311q32 32 49 44.5t38 19.5q60 20 116 -34z" />
    <glyph glyph-name="logicalnot" unicode="&#xac;" 
d="M875 183q-73 0 -103 57q-15 29 -15 107v130h-509q-78 0 -107 15q-57 30 -57 103t57 103q29 15 107 15h587q26 0 41.5 -1t39.5 -9.5t41 -25.5t25.5 -41t9.5 -39.5t1 -41.5v-208q0 -78 -15 -107q-30 -57 -103 -57z" />
    <glyph glyph-name="uni00AD" unicode="&#xad;" horiz-adv-x="852" 
d="M742 571q0 -73 -57 -103q-29 -15 -107 -15h-304q-78 0 -107 15q-57 30 -57 103t57 103q29 15 107 15h304q78 0 107 -15q57 -30 57 -103z" />
    <glyph glyph-name="registered" unicode="&#xae;" horiz-adv-x="1688" 
d="M120 712q0 197 97 363.5t263.5 263.5t363.5 97t363.5 -97t263.5 -263.5t97 -363.5t-97 -363.5t-263.5 -263.5t-363.5 -97t-363.5 97t-263.5 263.5t-97 363.5zM1400 712q0 159 -73.5 289t-201 203.5t-281.5 73.5t-281.5 -73.5t-201 -203.5t-73.5 -289t73.5 -289
t201 -203.5t281.5 -73.5t281.5 73.5t201 203.5t73.5 289zM836 628h-78v-179q0 -52 -12 -75q-20 -39 -72 -39q-51 0 -71 39q-12 23 -12 75v530q0 55 24 79t80 24h197q110 0 178 -68t68 -164q0 -73 -37 -123t-95 -73l100 -171q23 -42 26 -68q3 -40 -42 -67q-22 -13 -43 -13
q-26 0 -43 16t-38 52zM871 942h-113v-185h113q44 0 72 25t28 68t-27.5 67.5t-72.5 24.5z" />
    <glyph glyph-name="macron" unicode="&#xaf;" 
d="M358 1450h370q61 0 88 -14q48 -25 48 -86t-48 -86q-27 -14 -88 -14h-370q-61 0 -88 14q-48 25 -48 86t48 86q27 14 88 14z" />
    <glyph glyph-name="degree" unicode="&#xb0;" horiz-adv-x="955" 
d="M108 1085q0 153 108 261t261 108t261 -108t108 -261t-108 -261t-261 -108t-261 108t-108 261zM319 1085q0 -68 46 -115t112 -47t112 47t46 115t-46 115t-112 47t-112 -47t-46 -115z" />
    <glyph glyph-name="plusminus" unicode="&#xb1;" 
d="M829 687h-168v-168q0 -78 -15 -107q-30 -57 -103 -57t-103 57q-15 29 -15 107v168h-168q-78 0 -107 15q-57 30 -57 103t57 103q29 15 107 15h168v168q0 78 15 107q30 57 103 57t103 -57q15 -29 15 -107v-168h168q78 0 107 -15q57 -30 57 -103t-57 -103q-29 -15 -107 -15z
M993 116q0 -73 -57 -103q-29 -15 -107 -15h-574q-78 0 -107 15q-57 30 -57 103t57 103q29 15 107 15h574q78 0 107 -15q57 -30 57 -103z" />
    <glyph glyph-name="twosuperior" unicode="&#xb2;" horiz-adv-x="664" 
d="M525 985l-213 -245h194q51 0 74 -13q40 -22 40 -72q0 -51 -40 -72q-23 -13 -74 -13h-328q-67 0 -92 26q-25 27 -25 67q0 25 11 44.5t34 47.5l265 314q52 61 52 110q0 38 -23.5 61t-63.5 23q-66 0 -91 -69q-14 -35 -35 -50q-20 -16 -52 -16q-50 0 -74 36q-15 25 -15 55
q0 70 68 136q80 77 199 77q128 0 201.5 -66t73.5 -187q0 -58 -22 -102t-64 -92z" />
    <glyph glyph-name="threesuperior" unicode="&#xb3;" horiz-adv-x="664" 
d="M606 1181q0 -115 -90 -169q101 -65 101 -188q0 -126 -81 -194t-201 -68q-133 0 -213 80q-58 56 -58 135q0 44 22 67q28 30 68 30q32 0 54 -17q22 -19 30 -50q20 -76 97 -76q42 0 68 26t26 73q0 42 -26.5 69t-68.5 28q-39 2 -57 20q-22 22 -22 59q0 39 22 61q21 21 57 21
q40 0 63 26t23 60q0 42 -24.5 65.5t-59.5 23.5q-62 0 -84 -58q-14 -36 -26 -51q-18 -26 -60 -26q-39 0 -64 27t-25 68q0 75 58 130q82 79 201 79q118 0 194 -70.5t76 -180.5z" />
    <glyph glyph-name="acute" unicode="&#xb4;" 
d="M509 1198q-59 38 -54 96q2 31 39 90l85 136q33 53 55 69q26 18 57 18q33 0 61 -18q59 -38 54 -96q-2 -31 -39 -90l-85 -136q-33 -53 -55 -69q-25 -18 -57 -18t-61 18z" />
    <glyph glyph-name="mu" unicode="&#xb5;" horiz-adv-x="1156" 
d="M497 -12q-56 0 -92 28v-228q0 -82 -17 -116q-31 -62 -113 -62t-113 62q-17 34 -17 116v1084q0 82 17 116q31 62 113 62t113 -62q17 -34 17 -116v-471q0 -91 51 -134t121 -43q71 0 122.5 45.5t51.5 142.5v460q0 82 17 116q31 62 113 62t113 -62q17 -34 17 -116v-703
q0 -51 -3.5 -73t-15.5 -44q-14 -27 -44.5 -43.5t-67.5 -16.5q-51 0 -83 30q-27 25 -39 75q-49 -53 -118 -81t-143 -28z" />
    <glyph glyph-name="paragraph" unicode="&#xb6;" horiz-adv-x="1337" 
d="M911 1176h-201v-1388q0 -82 -17 -116q-31 -62 -113 -62t-113 62q-17 34 -17 116v828q-99 0 -186.5 53.5t-141 147t-53.5 201.5q0 193 125.5 299.5t336.5 106.5h482q26 0 41.5 -1t39.5 -9.5t41 -25.5t25.5 -41t9.5 -39.5t1 -41.5v-1478q0 -82 -17 -116q-31 -62 -113 -62
t-113 62q-17 34 -17 116v1388z" />
    <glyph glyph-name="periodcentered" unicode="&#xb7;" horiz-adv-x="654" 
d="M152 571q0 73 51 124t124 51t124 -51t51 -124t-51 -124t-124 -51t-124 51t-51 124z" />
    <glyph glyph-name="cedilla" unicode="&#xb8;" horiz-adv-x="1088" 
d="M346 -503q-59 38 -54 96q2 31 39 90l85 136q33 53 55 69q26 18 57 18q32 0 61 -18q59 -38 54 -96q-2 -31 -39 -90l-85 -136q-33 -53 -55 -69q-26 -18 -57 -18q-33 0 -61 18z" />
    <glyph glyph-name="onesuperior" unicode="&#xb9;" horiz-adv-x="664" 
d="M290 693v445l-39 -39q-41 -40 -66 -48q-46 -15 -87 25q-40 40 -25 87q8 25 48 66l153 153q50 50 105 50q44 0 73 -27q30 -29 30 -96v-616q0 -58 -13 -84q-23 -47 -83 -47t-83 47q-13 26 -13 84z" />
    <glyph glyph-name="ordmasculine" unicode="&#xba;" horiz-adv-x="922" 
d="M614 1009q0 79 -8.5 127.5t-38.5 78.5q-41 43 -106 43t-106 -43q-30 -30 -38.5 -78.5t-8.5 -127.5t8.5 -127.5t38.5 -78.5q41 -43 106 -43t106 43q30 30 38.5 78.5t8.5 127.5zM115 1009q0 120 23 195.5t78 130.5q95 95 245 95t245 -95q55 -55 78 -130.5t23 -195.5
t-23 -195.5t-78 -130.5q-95 -95 -245 -95t-245 95q-55 55 -78 130.5t-23 195.5z" />
    <glyph glyph-name="guillemotright" unicode="&#xbb;" horiz-adv-x="1286" 
d="M149 882q56 54 116 34q21 -7 38 -19.5t49 -44.5l311 -311l-311 -311q-32 -32 -49 -44.5t-38 -19.5q-60 -20 -116 34q-53 53 -34 115q11 35 64 88l138 138l-138 138q-53 53 -64 88q-19 62 34 115zM705 882q56 54 116 34q21 -7 38 -19.5t49 -44.5l311 -311l-311 -311
q-32 -32 -49 -44.5t-38 -19.5q-60 -20 -116 34q-53 53 -34 115q11 35 64 88l138 138l-138 138q-53 53 -64 88q-19 62 34 115z" />
    <glyph glyph-name="onequarter" unicode="&#xbc;" horiz-adv-x="1683" 
d="M290 693v445l-39 -39q-41 -40 -66 -48q-46 -15 -87 25q-40 40 -25 87q8 25 48 66l153 153q50 50 105 50q44 0 73 -27q30 -29 30 -96v-616q0 -58 -13 -84q-23 -47 -83 -47t-83 47q-13 26 -13 84zM1249 1341q0 -22 -25 -73l-600 -1194q-16 -31 -25 -44t-23 -23
q-22 -15 -48 -15q-21 0 -43 11q-50 25 -50 80q0 22 25 73l600 1194q16 31 25 44t23 23q22 15 48 15q21 0 43 -11q50 -25 50 -80zM1559 287q42 -1 64 -13q40 -22 40 -72q0 -51 -40 -72q-22 -12 -64 -13q0 -52 -13 -78q-24 -47 -83 -47t-83 47q-13 26 -13 78h-204
q-52 0 -74 13q-42 25 -42 70q0 25 23 71l256 512q18 36 39.5 57.5t53.5 21.5q35 0 63 -24.5t28 -59.5q0 -29 -23 -75l-208 -416h88q0 58 13 84q24 47 83 47t83 -47q13 -26 13 -84z" />
    <glyph glyph-name="onehalf" unicode="&#xbd;" horiz-adv-x="1683" 
d="M290 693v445l-39 -39q-41 -40 -66 -48q-46 -15 -87 25q-40 40 -25 87q8 25 48 66l153 153q50 50 105 50q44 0 73 -27q30 -29 30 -96v-616q0 -58 -13 -84q-23 -47 -83 -47t-83 47q-13 26 -13 84zM1249 1341q0 -22 -25 -73l-600 -1194q-16 -31 -25 -44t-23 -23
q-22 -15 -48 -15q-21 0 -43 11q-50 25 -50 80q0 22 25 73l600 1194q16 31 25 44t23 23q22 15 48 15q21 0 43 -11q50 -25 50 -80zM1544 415l-213 -245h194q51 0 74 -13q40 -22 40 -72q0 -51 -40 -72q-23 -13 -74 -13h-328q-67 0 -92 26q-25 27 -25 67q0 25 11 44.5t34 47.5
l265 314q52 61 52 110q0 38 -23.5 61t-63.5 23q-65 0 -91 -69q-14 -35 -35 -50q-20 -16 -52 -16q-50 0 -74 36q-15 25 -15 55q0 70 68 136q80 77 199 77q128 0 201.5 -66t73.5 -187q0 -58 -22 -102t-64 -92z" />
    <glyph glyph-name="threequarters" unicode="&#xbe;" horiz-adv-x="1683" 
d="M607 1181q0 -115 -90 -169q101 -65 101 -188q0 -126 -81 -194t-201 -68q-133 0 -213 80q-58 56 -58 135q0 44 22 67q28 30 68 30q32 0 54 -17q22 -19 30 -50q20 -76 97 -76q42 0 68 26t26 73q0 42 -26.5 69t-68.5 28q-39 2 -57 20q-22 22 -22 59q0 39 22 61q21 21 57 21
q40 0 63 26t23 60q0 42 -24.5 65.5t-59.5 23.5q-62 0 -84 -58q-14 -36 -26 -51q-18 -26 -60 -26q-39 0 -64 27t-25 68q0 75 58 130q82 79 201 79q118 0 194 -70.5t76 -180.5zM1249 1341q0 -22 -25 -73l-600 -1194q-16 -31 -25 -44t-23 -23q-22 -15 -48 -15q-21 0 -43 11
q-50 25 -50 80q0 22 25 73l600 1194q16 31 25 44t23 23q22 15 48 15q21 0 43 -11q50 -25 50 -80zM1559 287q42 -1 64 -13q40 -22 40 -72q0 -51 -40 -72q-22 -12 -64 -13q0 -52 -13 -78q-24 -47 -83 -47t-83 47q-13 26 -13 78h-204q-52 0 -74 13q-42 25 -42 70q0 25 23 71
l256 512q18 36 39.5 57.5t53.5 21.5q35 0 63 -24.5t28 -59.5q0 -29 -23 -75l-208 -416h88q0 58 13 84q24 47 83 47t83 -47q13 -26 13 -84z" />
    <glyph glyph-name="questiondown" unicode="&#xbf;" horiz-adv-x="1046" 
d="M640 891q0 -65 -46 -111t-111 -46t-111 46t-46 111t46 111t111 46t111 -46t46 -111zM72 -4q0 77 23 131t74 121l120 157q41 53 57 116q13 46 40 75q36 38 97 38q59 0 97 -40q31 -32 31 -89q0 -48 -16 -89.5t-56 -92.5l-149 -188q-58 -73 -58 -139q0 -67 43.5 -111.5
t114.5 -44.5q78 0 123 48q31 32 50 95q12 38 36 66q31 32 91 32q54 0 87 -35q31 -32 31 -92q0 -54 -29.5 -119.5t-85.5 -117.5q-121 -111 -300 -111q-117 0 -212 45.5t-152 135.5t-57 209z" />
    <glyph glyph-name="Agrave" unicode="&#xc0;" horiz-adv-x="1272" 
d="M793 1304l411 -1090q16 -43 22 -68t0.5 -55t-29.5 -56q-40 -43 -100 -43q-45 0 -77 26q-18 15 -29.5 35.5t-29.5 69.5l-47 129h-556l-47 -129q-18 -49 -29.5 -69.5t-29.5 -35.5q-32 -26 -77 -26q-60 0 -100 43q-24 26 -29.5 56t0.5 55t22 68l411 1090q26 67 57 94
q38 34 100 34t100 -34q31 -27 57 -94zM636 1003l-191 -517h382zM669 1553q-28 -18 -61 -18q-32 0 -57 18q-22 16 -55 69l-85 136q-37 59 -39 90q-5 58 54 96q28 18 61 18q31 0 57 -18q22 -16 55 -69l85 -136q37 -59 39 -90q5 -58 -54 -96z" />
    <glyph glyph-name="Aacute" unicode="&#xc1;" horiz-adv-x="1272" 
d="M793 1304l411 -1090q16 -43 22 -68t0.5 -55t-29.5 -56q-40 -43 -100 -43q-45 0 -77 26q-18 15 -29.5 35.5t-29.5 69.5l-47 129h-556l-47 -129q-18 -49 -29.5 -69.5t-29.5 -35.5q-32 -26 -77 -26q-60 0 -100 43q-24 26 -29.5 56t0.5 55t22 68l411 1090q26 67 57 94
q38 34 100 34t100 -34q31 -27 57 -94zM636 1003l-191 -517h382zM599 1554q-59 38 -54 96q2 31 39 90l85 136q33 53 55 69q26 18 57 18q32 0 61 -18q59 -38 54 -96q-2 -31 -39 -90l-85 -136q-33 -53 -55 -69q-25 -18 -57 -18t-61 18z" />
    <glyph glyph-name="Acircumflex" unicode="&#xc2;" horiz-adv-x="1272" 
d="M793 1304l411 -1090q16 -43 22 -68t0.5 -55t-29.5 -56q-40 -43 -100 -43q-45 0 -77 26q-18 15 -29.5 35.5t-29.5 69.5l-47 129h-556l-47 -129q-18 -49 -29.5 -69.5t-29.5 -35.5q-32 -26 -77 -26q-60 0 -100 43q-24 26 -29.5 56t0.5 55t22 68l411 1090q26 67 57 94
q38 34 100 34t100 -34q31 -27 57 -94zM636 1003l-191 -517h382zM756 1586l-122 121l-122 -121q-42 -42 -73 -53q-52 -17 -97 28q-44 44 -28 97q11 31 53 73l154 154q18 18 30.5 28.5t35.5 21t47 10.5t47 -10.5t35.5 -21t30.5 -28.5l154 -154q42 -42 53 -73q16 -53 -28 -97
q-45 -45 -97 -28q-31 11 -73 53z" />
    <glyph glyph-name="Atilde" unicode="&#xc3;" horiz-adv-x="1272" 
d="M793 1304l411 -1090q16 -43 22 -68t0.5 -55t-29.5 -56q-40 -43 -100 -43q-45 0 -77 26q-18 15 -29.5 35.5t-29.5 69.5l-47 129h-556l-47 -129q-18 -49 -29.5 -69.5t-29.5 -35.5q-32 -26 -77 -26q-60 0 -100 43q-24 26 -29.5 56t0.5 55t22 68l411 1090q26 67 57 94
q38 34 100 34t100 -34q31 -27 57 -94zM636 1003l-191 -517h382zM612 1615q-60 34 -106 34t-87 -32q-36 -26 -65 -26q-43 0 -68 30q-21 25 -21 63q0 49 56 93q45 36 84.5 49t91.5 13q45 0 79 -9.5t80 -34.5q60 -34 106 -34t87 32q36 26 65 26q43 0 68 -30q21 -25 21 -63
q0 -49 -56 -93q-45 -36 -84.5 -49t-91.5 -13q-45 0 -79 9.5t-80 34.5z" />
    <glyph glyph-name="Adieresis" unicode="&#xc4;" horiz-adv-x="1272" 
d="M793 1304l411 -1090q16 -43 22 -68t0.5 -55t-29.5 -56q-40 -43 -100 -43q-45 0 -77 26q-18 15 -29.5 35.5t-29.5 69.5l-47 129h-556l-47 -129q-18 -49 -29.5 -69.5t-29.5 -35.5q-32 -26 -77 -26q-60 0 -100 43q-24 26 -29.5 56t0.5 55t22 68l411 1090q26 67 57 94
q38 34 100 34t100 -34q31 -27 57 -94zM636 1003l-191 -517h382zM994 1691q0 -55 -39 -94.5t-95 -39.5t-95 39.5t-39 94.5t39 94.5t95 39.5t95 -39.5t39 -94.5zM542 1691q0 -55 -39 -94.5t-95 -39.5t-95 39.5t-39 94.5t39 94.5t95 39.5t95 -39.5t39 -94.5z" />
    <glyph glyph-name="Aring" unicode="&#xc5;" horiz-adv-x="1272" 
d="M793 1304l411 -1090q16 -43 22 -68t0.5 -55t-29.5 -56q-40 -43 -100 -43q-45 0 -77 26q-18 15 -29.5 35.5t-29.5 69.5l-47 129h-556l-47 -129q-18 -49 -29.5 -69.5t-29.5 -35.5q-32 -26 -77 -26q-60 0 -100 43q-24 26 -29.5 56t0.5 55t22 68l411 1090q26 67 57 94
q38 34 100 34t100 -34q31 -27 57 -94zM636 1003l-191 -517h382zM896 1768q0 -108 -77 -185t-185 -77t-185 77t-77 185t77 185t185 77t185 -76.5t77 -185.5zM750 1768q0 48 -34 82t-82 34t-82 -34t-34 -82t34 -83t82 -35t82 35t34 83z" />
    <glyph glyph-name="AE" unicode="&#xc6;" horiz-adv-x="1897" 
d="M1025 0q-28 0 -45 1.5t-42.5 10.5t-43.5 27t-27 43.5t-10.5 42.5t-1.5 45v142h-441l-102 -204q-22 -44 -34.5 -62.5t-31.5 -32.5q-29 -21 -65 -21q-33 0 -65 16q-34 17 -53 45.5t-20 60.5q-1 23 6.5 43.5t29.5 66.5l515 1032q48 95 92 130q49 38 118 38h831q78 0 109 -16
q27 -14 43 -43t16 -65t-16 -65t-43 -43q-31 -16 -109 -16h-500v-334h404q78 0 109 -16q27 -14 43 -43t16 -65t-16 -65t-43 -43q-31 -16 -109 -16h-404v-346h500q78 0 109 -16q27 -14 43 -43t16 -65t-16 -65t-43 -43q-31 -16 -109 -16h-610zM531 546h324v649z" />
    <glyph glyph-name="Ccedilla" unicode="&#xc7;" horiz-adv-x="1233" 
d="M635 236q144 0 210 147q33 70 69 99q31 24 80 24q59 0 97 -38q37 -37 37 -106q0 -51 -29.5 -118t-92.5 -128q-68 -66 -154 -97t-211 -31q-231 0 -379 150q-42 42 -69.5 90t-43 92.5t-23 114.5t-9 124.5t-1.5 152.5t1.5 152.5t9 124.5t23 114.5t43 92.5t69.5 90
q148 150 379 150q125 0 211 -31t154 -97q63 -61 92.5 -128t29.5 -118q0 -69 -37 -106q-38 -38 -97 -38q-49 0 -80 24q-36 29 -69 99q-66 147 -210 147q-101 0 -169 -76q-44 -50 -57 -128t-13 -272t13 -272t57 -128q68 -76 169 -76zM474 -503q-59 38 -54 96q2 31 39 90
l85 136q33 53 55 69q25 18 57 18t61 -18q59 -38 54 -96q-2 -31 -39 -90l-85 -136q-33 -53 -55 -69q-26 -18 -57 -18q-33 0 -61 18z" />
    <glyph glyph-name="Egrave" unicode="&#xc8;" horiz-adv-x="1207" 
d="M335 0q-28 0 -45 1.5t-42.5 10.5t-43.5 27t-27 43.5t-10.5 42.5t-1.5 45v1084q0 28 1.5 45t10.5 42.5t27 43.5t43.5 27t42.5 10.5t45 1.5h610q78 0 109 -16q27 -14 43 -43t16 -65t-16 -65t-43 -43q-31 -16 -109 -16h-500v-334h404q78 0 109 -16q27 -14 43 -43t16 -65
t-16 -65t-43 -43q-31 -16 -109 -16h-404v-346h500q78 0 109 -16q27 -14 43 -43t16 -65t-16 -65t-43 -43q-31 -16 -109 -16h-610zM665 1553q-29 -18 -61 -18t-57 18q-22 16 -55 69l-85 136q-37 59 -39 90q-5 58 54 96q29 18 61 18q31 0 57 -18q22 -16 55 -69l85 -136
q37 -59 39 -90q5 -58 -54 -96z" />
    <glyph glyph-name="Eacute" unicode="&#xc9;" horiz-adv-x="1207" 
d="M335 0q-28 0 -45 1.5t-42.5 10.5t-43.5 27t-27 43.5t-10.5 42.5t-1.5 45v1084q0 28 1.5 45t10.5 42.5t27 43.5t43.5 27t42.5 10.5t45 1.5h610q78 0 109 -16q27 -14 43 -43t16 -65t-16 -65t-43 -43q-31 -16 -109 -16h-500v-334h404q78 0 109 -16q27 -14 43 -43t16 -65
t-16 -65t-43 -43q-31 -16 -109 -16h-404v-346h500q78 0 109 -16q27 -14 43 -43t16 -65t-16 -65t-43 -43q-31 -16 -109 -16h-610zM595 1554q-59 38 -54 96q2 31 39 90l85 136q33 53 55 69q26 18 57 18q33 0 61 -18q59 -38 54 -96q-2 -31 -39 -90l-85 -136q-33 -53 -55 -69
q-25 -18 -57 -18t-61 18z" />
    <glyph glyph-name="Ecircumflex" unicode="&#xca;" horiz-adv-x="1207" 
d="M335 0q-28 0 -45 1.5t-42.5 10.5t-43.5 27t-27 43.5t-10.5 42.5t-1.5 45v1084q0 28 1.5 45t10.5 42.5t27 43.5t43.5 27t42.5 10.5t45 1.5h610q78 0 109 -16q27 -14 43 -43t16 -65t-16 -65t-43 -43q-31 -16 -109 -16h-500v-334h404q78 0 109 -16q27 -14 43 -43t16 -65
t-16 -65t-43 -43q-31 -16 -109 -16h-404v-346h500q78 0 109 -16q27 -14 43 -43t16 -65t-16 -65t-43 -43q-31 -16 -109 -16h-610zM752 1586l-122 121l-122 -121q-42 -42 -73 -53q-52 -17 -97 28q-44 44 -28 97q11 31 53 73l154 154q18 18 30.5 28.5t35.5 21t47 10.5t47 -10.5
t35.5 -21t30.5 -28.5l154 -154q42 -42 53 -73q16 -53 -28 -97q-45 -45 -97 -28q-31 11 -73 53z" />
    <glyph glyph-name="Edieresis" unicode="&#xcb;" horiz-adv-x="1207" 
d="M335 0q-28 0 -45 1.5t-42.5 10.5t-43.5 27t-27 43.5t-10.5 42.5t-1.5 45v1084q0 28 1.5 45t10.5 42.5t27 43.5t43.5 27t42.5 10.5t45 1.5h610q78 0 109 -16q27 -14 43 -43t16 -65t-16 -65t-43 -43q-31 -16 -109 -16h-500v-334h404q78 0 109 -16q27 -14 43 -43t16 -65
t-16 -65t-43 -43q-31 -16 -109 -16h-404v-346h500q78 0 109 -16q27 -14 43 -43t16 -65t-16 -65t-43 -43q-31 -16 -109 -16h-610zM990 1691q0 -55 -39 -94.5t-95 -39.5t-95 39.5t-39 94.5t39 94.5t95 39.5t95 -39.5t39 -94.5zM538 1691q0 -55 -39 -94.5t-95 -39.5t-95 39.5
t-39 94.5t39 94.5t95 39.5t95 -39.5t39 -94.5z" />
    <glyph glyph-name="Igrave" unicode="&#xcc;" horiz-adv-x="610" 
d="M445 1244v-1064q0 -51 -3.5 -74t-15.5 -48q-16 -30 -48.5 -48t-72.5 -18t-72.5 18t-48.5 48q-12 25 -15.5 48t-3.5 74v1064q0 51 3.5 74t15.5 48q16 30 48.5 48t72.5 18t72.5 -18t48.5 -48q12 -25 15.5 -48t3.5 -74zM340 1553q-29 -18 -61 -18q-31 0 -57 18
q-22 16 -55 69l-85 136q-37 59 -39 90q-5 58 54 96q29 18 61 18t57 -18q22 -16 55 -69l85 -136q37 -59 39 -90q5 -58 -54 -96z" />
    <glyph glyph-name="Iacute" unicode="&#xcd;" horiz-adv-x="610" 
d="M445 1244v-1064q0 -51 -3.5 -74t-15.5 -48q-16 -30 -48.5 -48t-72.5 -18t-72.5 18t-48.5 48q-12 25 -15.5 48t-3.5 74v1064q0 51 3.5 74t15.5 48q16 30 48.5 48t72.5 18t72.5 -18t48.5 -48q12 -25 15.5 -48t3.5 -74zM270 1554q-59 38 -54 96q2 31 39 90l85 136
q33 53 55 69q25 18 57 18q33 0 61 -18q59 -38 54 -96q-2 -31 -39 -90l-85 -136q-33 -53 -55 -69q-26 -18 -57 -18q-33 0 -61 18z" />
    <glyph glyph-name="Icircumflex" unicode="&#xce;" horiz-adv-x="610" 
d="M445 1244v-1064q0 -51 -3.5 -74t-15.5 -48q-16 -30 -48.5 -48t-72.5 -18t-72.5 18t-48.5 48q-12 25 -15.5 48t-3.5 74v1064q0 51 3.5 74t15.5 48q16 30 48.5 48t72.5 18t72.5 -18t48.5 -48q12 -25 15.5 -48t3.5 -74zM427 1586l-122 121l-122 -121q-42 -42 -73 -53
q-52 -17 -97 28q-44 44 -28 97q11 31 53 73l154 154q18 18 30.5 28.5t35.5 21t47 10.5t47 -10.5t35.5 -21t30.5 -28.5l154 -154q42 -42 53 -73q16 -53 -28 -97q-45 -45 -97 -28q-31 11 -73 53z" />
    <glyph glyph-name="Idieresis" unicode="&#xcf;" horiz-adv-x="610" 
d="M647 1691q0 -55 -39.5 -94.5t-94.5 -39.5t-94.5 39.5t-39.5 94.5t39.5 94.5t94.5 39.5t94.5 -39.5t39.5 -94.5zM231 1691q0 -55 -39.5 -94.5t-94.5 -39.5t-94.5 39.5t-39.5 94.5t39.5 94.5t94.5 39.5t94.5 -39.5t39.5 -94.5zM445 1244v-1064q0 -51 -3.5 -74t-15.5 -48
q-16 -30 -48.5 -48t-72.5 -18t-72.5 18t-48.5 48q-12 25 -15.5 48t-3.5 74v1064q0 51 3.5 74t15.5 48q16 30 48.5 48t72.5 18t72.5 -18t48.5 -48q12 -25 15.5 -48t3.5 -74z" />
    <glyph glyph-name="Eth" unicode="&#xd0;" horiz-adv-x="1370" 
d="M182 609q-68 0 -97 15q-51 28 -51 94t51 94q29 15 97 15h32v427q0 28 1.5 45t10.5 42.5t27 43.5t43.5 27t42.5 10.5t45 1.5h346q146 0 248 -49.5t182 -158.5q62 -83 77 -188.5t15 -315.5t-15 -315.5t-77 -188.5q-80 -109 -182 -158.5t-248 -49.5h-346q-28 0 -45 1.5
t-42.5 10.5t-43.5 27t-27 43.5t-10.5 42.5t-1.5 45v439h-32zM494 1176v-349h110q69 0 97 -15q51 -28 51 -94t-51 -94q-28 -15 -97 -15h-110v-361h212q138 0 208 88q37 46 47.5 121.5t10.5 254.5t-10.5 254.5t-47.5 121.5q-70 88 -208 88h-212z" />
    <glyph glyph-name="Ntilde" unicode="&#xd1;" horiz-adv-x="1423" 
d="M1258 1244v-1078q0 -93 -38 -131q-43 -43 -105 -43q-46 0 -81 29t-82 99l-507 748v-688q0 -51 -3.5 -74t-15.5 -48q-16 -30 -48.5 -48t-72.5 -18t-72.5 18t-48.5 48q-12 25 -15.5 48t-3.5 74v1078q0 92 38 131q43 43 105 43q46 0 81 -29t83 -99l506 -748v688q0 51 3.5 74
t15.5 48q16 30 48.5 48t72.5 18t72.5 -18t48.5 -48q12 -25 15.5 -48t3.5 -74zM689 1615q-60 34 -106 34t-87 -32q-36 -26 -65 -26q-43 0 -68 30q-21 25 -21 63q0 49 56 93q45 36 84.5 49t91.5 13q45 0 79 -9.5t80 -34.5q60 -34 106 -34t87 32q36 26 65 26q43 0 68 -30
q21 -25 21 -63q0 -49 -56 -93q-45 -36 -84.5 -49t-91.5 -13q-45 0 -79 9.5t-80 34.5z" />
    <glyph glyph-name="Ograve" unicode="&#xd2;" horiz-adv-x="1288" 
d="M644 -12q-234 0 -382 150q-42 42 -69.5 90t-43 92.5t-23 114.5t-9 124.5t-1.5 152.5t1.5 152.5t9 124.5t23 114.5t43 92.5t69.5 90q148 150 382 150t382 -150q42 -42 69.5 -90t43 -92.5t23 -114.5t9 -124.5t1.5 -152.5t-1.5 -152.5t-9 -124.5t-23 -114.5t-43 -92.5
t-69.5 -90q-148 -150 -382 -150zM644 1188q-113 0 -179 -76q-41 -46 -55 -123.5t-14 -276.5t14 -276t55 -123q68 -77 179 -77t179 77q41 46 55 123t14 276t-14 276.5t-55 123.5q-66 76 -179 76zM678 1553q-29 -18 -61 -18q-31 0 -57 18q-22 16 -55 69l-85 136q-37 59 -39 90
q-5 58 54 96q28 18 61 18q32 0 57 -18q22 -16 55 -69l85 -136q37 -59 39 -90q5 -58 -54 -96z" />
    <glyph glyph-name="Oacute" unicode="&#xd3;" horiz-adv-x="1288" 
d="M644 -12q-234 0 -382 150q-42 42 -69.5 90t-43 92.5t-23 114.5t-9 124.5t-1.5 152.5t1.5 152.5t9 124.5t23 114.5t43 92.5t69.5 90q148 150 382 150t382 -150q42 -42 69.5 -90t43 -92.5t23 -114.5t9 -124.5t1.5 -152.5t-1.5 -152.5t-9 -124.5t-23 -114.5t-43 -92.5
t-69.5 -90q-148 -150 -382 -150zM644 1188q-113 0 -179 -76q-41 -46 -55 -123.5t-14 -276.5t14 -276t55 -123q68 -77 179 -77t179 77q41 46 55 123t14 276t-14 276.5t-55 123.5q-66 76 -179 76zM608 1554q-59 38 -54 96q2 31 39 90l85 136q33 53 55 69q26 18 57 18
q32 0 61 -18q59 -38 54 -96q-2 -31 -39 -90l-85 -136q-33 -53 -55 -69q-26 -18 -57 -18q-33 0 -61 18z" />
    <glyph glyph-name="Ocircumflex" unicode="&#xd4;" horiz-adv-x="1288" 
d="M644 -12q-234 0 -382 150q-42 42 -69.5 90t-43 92.5t-23 114.5t-9 124.5t-1.5 152.5t1.5 152.5t9 124.5t23 114.5t43 92.5t69.5 90q148 150 382 150t382 -150q42 -42 69.5 -90t43 -92.5t23 -114.5t9 -124.5t1.5 -152.5t-1.5 -152.5t-9 -124.5t-23 -114.5t-43 -92.5
t-69.5 -90q-148 -150 -382 -150zM644 1188q-113 0 -179 -76q-41 -46 -55 -123.5t-14 -276.5t14 -276t55 -123q68 -77 179 -77t179 77q41 46 55 123t14 276t-14 276.5t-55 123.5q-66 76 -179 76zM765 1586l-122 121l-122 -121q-42 -42 -73 -53q-52 -17 -97 28q-44 44 -28 97
q11 31 53 73l154 154q18 18 30.5 28.5t35.5 21t47 10.5t47 -10.5t35.5 -21t30.5 -28.5l154 -154q42 -42 53 -73q16 -53 -28 -97q-45 -45 -97 -28q-31 11 -73 53z" />
    <glyph glyph-name="Otilde" unicode="&#xd5;" horiz-adv-x="1288" 
d="M644 -12q-234 0 -382 150q-42 42 -69.5 90t-43 92.5t-23 114.5t-9 124.5t-1.5 152.5t1.5 152.5t9 124.5t23 114.5t43 92.5t69.5 90q148 150 382 150t382 -150q42 -42 69.5 -90t43 -92.5t23 -114.5t9 -124.5t1.5 -152.5t-1.5 -152.5t-9 -124.5t-23 -114.5t-43 -92.5
t-69.5 -90q-148 -150 -382 -150zM644 1188q-113 0 -179 -76q-41 -46 -55 -123.5t-14 -276.5t14 -276t55 -123q68 -77 179 -77t179 77q41 46 55 123t14 276t-14 276.5t-55 123.5q-66 76 -179 76zM621 1615q-60 34 -106 34t-87 -32q-36 -26 -65 -26q-43 0 -68 30
q-21 25 -21 63q0 49 56 93q45 36 84.5 49t91.5 13q45 0 79 -9.5t80 -34.5q60 -34 106 -34t87 32q36 26 65 26q43 0 68 -30q21 -25 21 -63q0 -49 -56 -93q-45 -36 -84.5 -49t-91.5 -13q-45 0 -79 9.5t-80 34.5z" />
    <glyph glyph-name="Odieresis" unicode="&#xd6;" horiz-adv-x="1288" 
d="M644 -12q-234 0 -382 150q-42 42 -69.5 90t-43 92.5t-23 114.5t-9 124.5t-1.5 152.5t1.5 152.5t9 124.5t23 114.5t43 92.5t69.5 90q148 150 382 150t382 -150q42 -42 69.5 -90t43 -92.5t23 -114.5t9 -124.5t1.5 -152.5t-1.5 -152.5t-9 -124.5t-23 -114.5t-43 -92.5
t-69.5 -90q-148 -150 -382 -150zM644 1188q-113 0 -179 -76q-41 -46 -55 -123.5t-14 -276.5t14 -276t55 -123q68 -77 179 -77t179 77q41 46 55 123t14 276t-14 276.5t-55 123.5q-66 76 -179 76zM1003 1691q0 -55 -39.5 -94.5t-94.5 -39.5t-94.5 39.5t-39.5 94.5t39.5 94.5
t94.5 39.5t94.5 -39.5t39.5 -94.5zM551 1691q0 -55 -39.5 -94.5t-94.5 -39.5t-94.5 39.5t-39.5 94.5t39.5 94.5t94.5 39.5t94.5 -39.5t39.5 -94.5z" />
    <glyph glyph-name="multiply" unicode="&#xd7;" 
d="M371 571l-162 162q-53 53 -64 88q-19 62 34 115q56 54 116 34q21 -7 38 -19.5t49 -44.5l161 -161l161 161q32 32 49 44.5t38 19.5q60 20 116 -34q53 -53 34 -115q-11 -35 -64 -88l-162 -162l162 -162q53 -53 64 -88q19 -62 -34 -115q-56 -54 -116 -34q-21 7 -38 19.5
t-49 44.5l-161 161l-161 -161q-32 -32 -49 -44.5t-38 -19.5q-60 -20 -116 34q-53 53 -34 115q11 35 64 88z" />
    <glyph glyph-name="Oslash" unicode="&#xd8;" horiz-adv-x="1288" 
d="M1086 1426q0 -31 -28 -87l-29 -57q41 -41 68 -89t42 -92.5t22.5 -114t9 -123.5t1.5 -151q0 -98 -1.5 -152.5t-9 -124.5t-23 -114.5t-43 -92.5t-69.5 -90q-148 -150 -382 -150q-120 0 -212 40l-17 -36q-28 -56 -53 -75q-42 -31 -97 -6q-64 30 -64 87q0 31 28 87l28 57
q-40 41 -67 89t-41.5 92.5t-22 114t-9 123.5t-1.5 151q0 98 1.5 152.5t9 124.5t23 114.5t43 92.5t69.5 90q148 150 382 150q119 0 210 -40l18 36q28 56 53 75q42 31 97 6q64 -30 64 -87zM644 1188q-113 0 -179 -76q-41 -46 -55 -123.5t-14 -276.5q0 -116 5.5 -176t24.5 -103
l344 721q-56 34 -126 34zM643 236q113 0 179 76q41 47 55.5 124.5t14.5 275.5q0 114 -6 174.5t-25 104.5l-344 -721q56 -34 126 -34z" />
    <glyph glyph-name="Ugrave" unicode="&#xd9;" horiz-adv-x="1332" 
d="M666 -12q-223 0 -373.5 139t-150.5 361v756q0 51 3.5 74t15.5 48q16 30 48.5 48t72.5 18t72.5 -18t48.5 -48q12 -25 15.5 -48t3.5 -74v-746q0 -122 65.5 -192t178.5 -70t178.5 70t65.5 192v746q0 51 3.5 74t15.5 48q16 30 48.5 48t72.5 18t72.5 -18t48.5 -48
q12 -25 15.5 -48t3.5 -74v-756q0 -222 -150.5 -361t-373.5 -139zM702 1553q-28 -18 -61 -18q-31 0 -57 18q-22 16 -55 69l-85 136q-37 59 -39 90q-5 58 54 96q29 18 61 18t57 -18q22 -16 55 -69l85 -136q37 -59 39 -90q5 -58 -54 -96z" />
    <glyph glyph-name="Uacute" unicode="&#xda;" horiz-adv-x="1332" 
d="M666 -12q-223 0 -373.5 139t-150.5 361v756q0 51 3.5 74t15.5 48q16 30 48.5 48t72.5 18t72.5 -18t48.5 -48q12 -25 15.5 -48t3.5 -74v-746q0 -122 65.5 -192t178.5 -70t178.5 70t65.5 192v746q0 51 3.5 74t15.5 48q16 30 48.5 48t72.5 18t72.5 -18t48.5 -48
q12 -25 15.5 -48t3.5 -74v-756q0 -222 -150.5 -361t-373.5 -139zM632 1554q-59 38 -54 96q2 31 39 90l85 136q33 53 55 69q26 18 57 18q32 0 61 -18q59 -38 54 -96q-2 -31 -39 -90l-85 -136q-33 -53 -55 -69q-25 -18 -57 -18q-33 0 -61 18z" />
    <glyph glyph-name="Ucircumflex" unicode="&#xdb;" horiz-adv-x="1332" 
d="M666 -12q-223 0 -373.5 139t-150.5 361v756q0 51 3.5 74t15.5 48q16 30 48.5 48t72.5 18t72.5 -18t48.5 -48q12 -25 15.5 -48t3.5 -74v-746q0 -122 65.5 -192t178.5 -70t178.5 70t65.5 192v746q0 51 3.5 74t15.5 48q16 30 48.5 48t72.5 18t72.5 -18t48.5 -48
q12 -25 15.5 -48t3.5 -74v-756q0 -222 -150.5 -361t-373.5 -139zM789 1586l-122 121l-122 -121q-42 -42 -73 -53q-52 -17 -97 28q-44 44 -28 97q11 31 53 73l154 154q18 18 30.5 28.5t35.5 21t47 10.5t47 -10.5t35.5 -21t30.5 -28.5l154 -154q42 -42 53 -73q16 -53 -28 -97
q-45 -45 -97 -28q-31 11 -73 53z" />
    <glyph glyph-name="Udieresis" unicode="&#xdc;" horiz-adv-x="1332" 
d="M666 -12q-223 0 -373.5 139t-150.5 361v756q0 51 3.5 74t15.5 48q16 30 48.5 48t72.5 18t72.5 -18t48.5 -48q12 -25 15.5 -48t3.5 -74v-746q0 -122 65.5 -192t178.5 -70t178.5 70t65.5 192v746q0 51 3.5 74t15.5 48q16 30 48.5 48t72.5 18t72.5 -18t48.5 -48
q12 -25 15.5 -48t3.5 -74v-756q0 -222 -150.5 -361t-373.5 -139zM1027 1691q0 -55 -39.5 -94.5t-94.5 -39.5t-94.5 39.5t-39.5 94.5t39.5 94.5t94.5 39.5t94.5 -39.5t39.5 -94.5zM575 1691q0 -55 -39.5 -94.5t-94.5 -39.5t-94.5 39.5t-39.5 94.5t39.5 94.5t94.5 39.5
t94.5 -39.5t39.5 -94.5z" />
    <glyph glyph-name="Yacute" unicode="&#xdd;" horiz-adv-x="1080" 
d="M540 -8q-40 0 -72.5 18t-48.5 48q-12 25 -15.5 48t-3.5 74v378l-322 642q-22 46 -29.5 66.5t-6.5 43.5q1 32 20 60.5t53 45.5q32 16 65 16q36 0 65 -21q19 -14 31.5 -32.5t34.5 -62.5l229 -462l229 462q22 44 34.5 62.5t31.5 32.5q29 21 65 21q33 0 65 -16
q34 -17 53 -45.5t20 -60.5q1 -23 -6.5 -43.5t-29.5 -66.5l-322 -642v-378q0 -51 -3.5 -74t-15.5 -48q-16 -30 -48.5 -48t-72.5 -18zM506 1554q-59 38 -54 96q2 31 39 90l85 136q33 53 55 69q25 18 57 18t61 -18q59 -38 54 -96q-2 -31 -39 -90l-85 -136q-33 -53 -55 -69
q-26 -18 -57 -18q-33 0 -61 18z" />
    <glyph glyph-name="Thorn" unicode="&#xde;" horiz-adv-x="1265" 
d="M445 1162h274q215 0 342.5 -128t127.5 -316t-127.5 -316t-342.5 -128h-274v-94q0 -51 -3.5 -74t-15.5 -48q-16 -30 -48.5 -48t-72.5 -18t-72.5 18t-48.5 48q-12 25 -15.5 48t-3.5 74v1064q0 51 3.5 74t15.5 48q16 30 48.5 48t72.5 18t72.5 -18t48.5 -48q12 -25 15.5 -48
t3.5 -74v-82zM445 522h258q94 0 150 54t56 142t-56 142t-150 54h-258v-392z" />
    <glyph glyph-name="germandbls" unicode="&#xdf;" horiz-adv-x="1145" 
d="M555 854q0 44 28 72q26 26 84 28q102 3 102 115q0 59 -38 97q-45 43 -140 43q-101 0 -143.5 -48.5t-42.5 -144.5v-846q0 -82 -17 -116q-31 -62 -113 -62t-113 62q-17 34 -17 116v871q0 102 33.5 178.5t94.5 123.5t141.5 70t179.5 23q198 0 316.5 -88t118.5 -263
q0 -152 -123 -225q62 -31 93.5 -80.5t31.5 -138.5v-341q0 -136 -84 -218q-88 -85 -221 -85h-19q-50 0 -81 11q-71 28 -71 105q0 40 25 69t68 35q3 0 11 1.5t11.5 2t11 2t11.5 2.5t11 3t11.5 4t10 5t10.5 7t9 8q26 26 26 104v251q0 79 -24.5 112t-79.5 35q-58 2 -84 28
q-28 28 -28 72z" />
    <glyph glyph-name="agrave" unicode="&#xe0;" horiz-adv-x="1065" 
d="M487 834q-83 0 -167 -50q-46 -27 -86 -27q-46 0 -74 35q-29 35 -29 78q0 73 97 124q114 60 263 60q218 0 328.5 -92.5t110.5 -275.5v-517q0 -51 -3.5 -73t-15.5 -44q-14 -27 -44.5 -43.5t-67.5 -16.5q-51 0 -83 30q-26 24 -38 69q-58 -57 -114.5 -80t-143.5 -23
q-174 0 -266 94q-86 86 -86 234q0 132 92 217t268 85h242v52q0 85 -45 124.5t-138 39.5zM670 384v56h-198q-154 0 -154 -120q0 -56 39.5 -87t118.5 -31q53 0 88 10t66 40q23 21 31.5 50.5t8.5 81.5zM555 1198q-29 -18 -61 -18t-57 18q-22 16 -55 69l-85 136q-37 59 -39 90
q-5 58 54 96q28 18 61 18q31 0 57 -18q22 -16 55 -69l85 -136q37 -59 39 -90q5 -58 -54 -96z" />
    <glyph glyph-name="aacute" unicode="&#xe1;" horiz-adv-x="1065" 
d="M487 834q-83 0 -167 -50q-46 -27 -86 -27q-46 0 -74 35q-29 35 -29 78q0 73 97 124q114 60 263 60q218 0 328.5 -92.5t110.5 -275.5v-517q0 -51 -3.5 -73t-15.5 -44q-14 -27 -44.5 -43.5t-67.5 -16.5q-51 0 -83 30q-26 24 -38 69q-58 -57 -114.5 -80t-143.5 -23
q-174 0 -266 94q-86 86 -86 234q0 132 92 217t268 85h242v52q0 85 -45 124.5t-138 39.5zM670 384v56h-198q-154 0 -154 -120q0 -56 39.5 -87t118.5 -31q53 0 88 10t66 40q23 21 31.5 50.5t8.5 81.5zM485 1198q-59 38 -54 96q2 31 39 90l85 136q33 53 55 69q26 18 57 18
q33 0 61 -18q59 -38 54 -96q-2 -31 -39 -90l-85 -136q-33 -53 -55 -69q-25 -18 -57 -18t-61 18z" />
    <glyph glyph-name="acircumflex" unicode="&#xe2;" horiz-adv-x="1065" 
d="M487 834q-83 0 -167 -50q-46 -27 -86 -27q-46 0 -74 35q-29 35 -29 78q0 73 97 124q114 60 263 60q218 0 328.5 -92.5t110.5 -275.5v-517q0 -51 -3.5 -73t-15.5 -44q-14 -27 -44.5 -43.5t-67.5 -16.5q-51 0 -83 30q-26 24 -38 69q-58 -57 -114.5 -80t-143.5 -23
q-174 0 -266 94q-86 86 -86 234q0 132 92 217t268 85h242v52q0 85 -45 124.5t-138 39.5zM670 384v56h-198q-154 0 -154 -120q0 -56 39.5 -87t118.5 -31q53 0 88 10t66 40q23 21 31.5 50.5t8.5 81.5zM641 1229l-122 121l-122 -121q-42 -42 -73 -53q-52 -17 -97 28
q-44 44 -28 97q11 31 53 73l154 154q18 18 30.5 28.5t35.5 21t47 10.5t47 -10.5t35.5 -21t30.5 -28.5l154 -154q42 -42 53 -73q16 -53 -28 -97q-45 -45 -97 -28q-31 11 -73 53z" />
    <glyph glyph-name="atilde" unicode="&#xe3;" horiz-adv-x="1065" 
d="M487 834q-83 0 -167 -50q-46 -27 -86 -27q-46 0 -74 35q-29 35 -29 78q0 73 97 124q114 60 263 60q218 0 328.5 -92.5t110.5 -275.5v-517q0 -51 -3.5 -73t-15.5 -44q-14 -27 -44.5 -43.5t-67.5 -16.5q-51 0 -83 30q-26 24 -38 69q-58 -57 -114.5 -80t-143.5 -23
q-174 0 -266 94q-86 86 -86 234q0 132 92 217t268 85h242v52q0 85 -45 124.5t-138 39.5zM670 384v56h-198q-154 0 -154 -120q0 -56 39.5 -87t118.5 -31q53 0 88 10t66 40q23 21 31.5 50.5t8.5 81.5zM497 1264q-60 34 -106 34t-87 -32q-36 -26 -65 -26q-43 0 -68 30
q-21 25 -21 63q0 49 56 93q45 36 84.5 49t91.5 13q45 0 79 -9.5t80 -34.5q60 -34 106 -34t87 32q36 26 65 26q43 0 68 -30q21 -25 21 -63q0 -49 -56 -93q-45 -36 -84.5 -49t-91.5 -13q-45 0 -79 9.5t-80 34.5z" />
    <glyph glyph-name="adieresis" unicode="&#xe4;" horiz-adv-x="1065" 
d="M487 834q-83 0 -167 -50q-46 -27 -86 -27q-46 0 -74 35q-29 35 -29 78q0 73 97 124q114 60 263 60q218 0 328.5 -92.5t110.5 -275.5v-517q0 -51 -3.5 -73t-15.5 -44q-14 -27 -44.5 -43.5t-67.5 -16.5q-51 0 -83 30q-26 24 -38 69q-58 -57 -114.5 -80t-143.5 -23
q-174 0 -266 94q-86 86 -86 234q0 132 92 217t268 85h242v52q0 85 -45 124.5t-138 39.5zM670 384v56h-198q-154 0 -154 -120q0 -56 39.5 -87t118.5 -31q53 0 88 10t66 40q23 21 31.5 50.5t8.5 81.5zM879 1334q0 -56 -39.5 -95t-94.5 -39t-94.5 39t-39.5 95t39.5 95t94.5 39
t94.5 -39t39.5 -95zM427 1334q0 -56 -39.5 -95t-94.5 -39t-94.5 39t-39.5 95t39.5 95t94.5 39t94.5 -39t39.5 -95z" />
    <glyph glyph-name="aring" unicode="&#xe5;" horiz-adv-x="1065" 
d="M487 834q-83 0 -167 -50q-46 -27 -86 -27q-46 0 -74 35q-29 35 -29 78q0 73 97 124q114 60 263 60q218 0 328.5 -92.5t110.5 -275.5v-517q0 -51 -3.5 -73t-15.5 -44q-14 -27 -44.5 -43.5t-67.5 -16.5q-51 0 -83 30q-26 24 -38 69q-58 -57 -114.5 -80t-143.5 -23
q-174 0 -266 94q-86 86 -86 234q0 132 92 217t268 85h242v52q0 85 -45 124.5t-138 39.5zM670 384v56h-198q-154 0 -154 -120q0 -56 39.5 -87t118.5 -31q53 0 88 10t66 40q23 21 31.5 50.5t8.5 81.5zM519 1168q-108 0 -185 77t-77 185t77 185t185 77t185 -77t77 -185
t-77 -185t-185 -77zM519 1546q-48 0 -82 -34t-34 -82t34 -83t82 -35t82 35t34 83t-34 82t-82 34z" />
    <glyph glyph-name="ae" unicode="&#xe6;" horiz-adv-x="1669" 
d="M670 384v56h-198q-154 0 -154 -120q0 -56 39.5 -87t118.5 -31q53 0 88 10t66 40q23 21 31.5 50.5t8.5 81.5zM1323 618q-3 68 -23 113q-22 49 -67 78t-108 29t-108 -29t-66 -78q-22 -48 -23 -113h395zM1125 1054q205 0 325.5 -130.5t127.5 -334.5q2 -79 -35 -116
q-15 -15 -36.5 -23t-36.5 -9t-41 -1h-501q0 -104 60 -168t170 -64q105 0 180 56q55 39 97 39q39 0 72 -32.5t33 -76.5q0 -66 -102 -134q-106 -72 -285 -72q-242 0 -367 145q-81 -87 -163 -116t-203 -29q-174 0 -266 94q-86 86 -86 234q0 132 92 217t268 85h242v52
q0 85 -45 124.5t-138 39.5q-83 0 -167 -50q-46 -27 -86 -27q-46 0 -74 35q-29 35 -29 78q0 73 97 124q114 60 263 60q234 0 339 -113q111 113 295 113z" />
    <glyph glyph-name="ccedilla" unicode="&#xe7;" horiz-adv-x="962" 
d="M561 1054q117 0 204 -51q126 -64 126 -147q0 -46 -37 -85q-32 -34 -80 -34q-41 0 -90 36q-63 45 -125 45q-92 -2 -147 -68q-58 -72 -58 -228q0 -158 58 -230q56 -68 147 -68q65 0 125 44q51 38 90 38q47 0 80 -35q37 -37 37 -85q0 -79 -126 -148q-92 -50 -206 -50
q-67 0 -128.5 14.5t-124.5 52.5t-108.5 96.5t-74.5 153.5t-29 217t29 217t75 153t109 95.5t125 52t129 14.5zM355 -503q-59 38 -54 96q2 31 39 90l85 136q33 53 55 69q26 18 57 18q33 0 61 -18q59 -38 54 -96q-2 -31 -39 -90l-85 -136q-33 -53 -55 -69q-26 -18 -57 -18
q-32 0 -61 18z" />
    <glyph glyph-name="egrave" unicode="&#xe8;" horiz-adv-x="1091" 
d="M745 618q-3 68 -23 113q-22 49 -67 78t-108 29t-108 -29t-66 -78q-22 -48 -23 -113h395zM851 440h-501q0 -104 60 -168t170 -64q105 0 180 56q55 39 97 39q39 0 72 -32.5t33 -76.5q0 -66 -102 -134q-106 -72 -284 -72q-78 0 -145 14.5t-131 52t-108 96.5t-71 153.5
t-27 216.5q0 251 123.5 392t329.5 141q205 0 325.5 -130.5t127.5 -334.5q2 -79 -35 -116q-15 -15 -36.5 -23t-36.5 -9t-41 -1zM589 1198q-29 -18 -61 -18q-31 0 -57 18q-22 16 -55 69l-85 136q-37 59 -39 90q-5 58 54 96q29 18 61 18q31 0 57 -18q22 -16 55 -69l85 -136
q37 -59 39 -90q5 -58 -54 -96z" />
    <glyph glyph-name="eacute" unicode="&#xe9;" horiz-adv-x="1091" 
d="M745 618q-3 68 -23 113q-22 49 -67 78t-108 29t-108 -29t-66 -78q-22 -48 -23 -113h395zM851 440h-501q0 -104 60 -168t170 -64q105 0 180 56q55 39 97 39q39 0 72 -32.5t33 -76.5q0 -66 -102 -134q-106 -72 -284 -72q-78 0 -145 14.5t-131 52t-108 96.5t-71 153.5
t-27 216.5q0 251 123.5 392t329.5 141q205 0 325.5 -130.5t127.5 -334.5q2 -79 -35 -116q-15 -15 -36.5 -23t-36.5 -9t-41 -1zM519 1198q-59 38 -54 96q2 31 39 90l85 136q33 53 55 69q26 18 57 18q33 0 61 -18q59 -38 54 -96q-2 -31 -39 -90l-85 -136q-33 -53 -55 -69
q-25 -18 -57 -18t-61 18z" />
    <glyph glyph-name="ecircumflex" unicode="&#xea;" horiz-adv-x="1091" 
d="M745 618q-3 68 -23 113q-22 49 -67 78t-108 29t-108 -29t-66 -78q-22 -48 -23 -113h395zM851 440h-501q0 -104 60 -168t170 -64q105 0 180 56q55 39 97 39q39 0 72 -32.5t33 -76.5q0 -66 -102 -134q-106 -72 -284 -72q-78 0 -145 14.5t-131 52t-108 96.5t-71 153.5
t-27 216.5q0 251 123.5 392t329.5 141q205 0 325.5 -130.5t127.5 -334.5q2 -79 -35 -116q-15 -15 -36.5 -23t-36.5 -9t-41 -1zM675 1229l-122 121l-122 -121q-42 -42 -73 -53q-52 -17 -97 28q-44 44 -28 97q11 31 53 73l154 154q18 18 30.5 28.5t35.5 21t47 10.5t47 -10.5
t35.5 -21t30.5 -28.5l154 -154q42 -42 53 -73q16 -53 -28 -97q-45 -45 -97 -28q-31 11 -73 53z" />
    <glyph glyph-name="edieresis" unicode="&#xeb;" horiz-adv-x="1091" 
d="M745 618q-3 68 -23 113q-22 49 -67 78t-108 29t-108 -29t-66 -78q-22 -48 -23 -113h395zM851 440h-501q0 -104 60 -168t170 -64q105 0 180 56q55 39 97 39q39 0 72 -32.5t33 -76.5q0 -66 -102 -134q-106 -72 -284 -72q-78 0 -145 14.5t-131 52t-108 96.5t-71 153.5
t-27 216.5q0 251 123.5 392t329.5 141q205 0 325.5 -130.5t127.5 -334.5q2 -79 -35 -116q-15 -15 -36.5 -23t-36.5 -9t-41 -1zM913 1334q0 -56 -39.5 -95t-94.5 -39t-94.5 39t-39.5 95t39.5 95t94.5 39t94.5 -39t39.5 -95zM461 1334q0 -56 -39.5 -95t-94.5 -39t-94.5 39
t-39.5 95t39.5 95t94.5 39t94.5 -39t39.5 -95z" />
    <glyph glyph-name="igrave" unicode="&#xec;" horiz-adv-x="550" 
d="M405 170q0 -82 -17 -116q-31 -62 -113 -62t-113 62q-17 34 -17 116v672q0 82 17 116q31 62 113 62t113 -62q17 -34 17 -116v-672zM311 1198q-29 -18 -61 -18t-57 18q-22 16 -55 69l-85 136q-37 59 -39 90q-5 58 54 96q29 18 61 18t57 -18q22 -16 55 -69l85 -136
q37 -59 39 -90q5 -58 -54 -96z" />
    <glyph glyph-name="iacute" unicode="&#xed;" horiz-adv-x="550" 
d="M405 170q0 -82 -17 -116q-31 -62 -113 -62t-113 62q-17 34 -17 116v672q0 82 17 116q31 62 113 62t113 -62q17 -34 17 -116v-672zM241 1198q-59 38 -54 96q2 31 39 90l85 136q33 53 55 69q25 18 57 18q33 0 61 -18q59 -38 54 -96q-2 -31 -39 -90l-85 -136
q-33 -53 -55 -69q-26 -18 -57 -18q-32 0 -61 18z" />
    <glyph glyph-name="icircumflex" unicode="&#xee;" horiz-adv-x="550" 
d="M405 170q0 -82 -17 -116q-31 -62 -113 -62t-113 62q-17 34 -17 116v672q0 82 17 116q31 62 113 62t113 -62q17 -34 17 -116v-672zM397 1229l-122 121l-122 -121q-42 -42 -73 -53q-52 -17 -97 28q-44 44 -28 97q11 31 53 73l154 154q18 18 30.5 28.5t35.5 21t47 10.5
t47 -10.5t35.5 -21t30.5 -28.5l154 -154q42 -42 53 -73q16 -53 -28 -97q-45 -45 -97 -28q-31 11 -73 53z" />
    <glyph glyph-name="idieresis" unicode="&#xef;" horiz-adv-x="550" 
d="M617 1334q0 -56 -39.5 -95t-94.5 -39t-94.5 39t-39.5 95t39.5 95t94.5 39t94.5 -39t39.5 -95zM201 1334q0 -56 -39.5 -95t-94.5 -39t-94.5 39t-39.5 95t39.5 95t94.5 39t94.5 -39t39.5 -95zM405 170q0 -82 -17 -116q-31 -62 -113 -62t-113 62q-17 34 -17 116v672
q0 82 17 116q31 62 113 62t113 -62q17 -34 17 -116v-672z" />
    <glyph glyph-name="eth" unicode="&#xf0;" horiz-adv-x="1084" 
d="M274 1130q-48 25 -48 86q0 63 48 86q27 14 88 14h55q-1 6 -1 18q0 47 39 80.5t88 33.5q36 0 62 -19q29 -21 62 -88l12 -25h101q60 0 87 -14q48 -23 48 -86q0 -61 -48 -86q-27 -14 -86 -14l67 -132q74 -145 99 -239t25 -237q0 -145 -25 -236t-91 -160q-120 -124 -314 -124
t-314 124q-66 69 -91 160t-25 236q0 144 25 234.5t91 159.5q64 67 178 98q58 16 116 16q24 0 36 -2l-51 102h-145q-61 0 -88 14zM712 508q0 92 -10 148.5t-44 91.5q-44 44 -116 44q-70 0 -114 -44q-34 -36 -45 -93t-11 -147q0 -91 11 -148.5t45 -93.5q44 -44 114 -44
q72 0 116 44q34 35 44 92t10 150z" />
    <glyph glyph-name="ntilde" unicode="&#xf1;" horiz-adv-x="1146" 
d="M398 944q48 53 117.5 81.5t143.5 28.5q154 0 246 -92q59 -59 82.5 -131t23.5 -165v-496q0 -82 -17 -116q-31 -62 -113 -62t-113 62q-17 34 -17 116v460q0 97 -50.5 142.5t-121.5 45.5t-122.5 -45.5t-51.5 -142.5v-460q0 -82 -17 -116q-31 -62 -113 -62t-113 62
q-17 34 -17 116v703q0 51 3.5 73t15.5 44q14 27 44.5 43.5t67.5 16.5q51 0 83 -30q27 -25 39 -76zM559 1264q-60 34 -106 34t-87 -32q-36 -26 -65 -26q-43 0 -68 30q-21 25 -21 63q0 49 56 93q45 36 84.5 49t91.5 13q45 0 79 -9.5t80 -34.5q60 -34 106 -34t87 32
q36 26 65 26q43 0 68 -30q21 -25 21 -63q0 -49 -56 -93q-45 -36 -84.5 -49t-91.5 -13q-45 0 -79 9.5t-80 34.5z" />
    <glyph glyph-name="ograve" unicode="&#xf2;" horiz-adv-x="1088" 
d="M362 521q0 -95 12 -155.5t49 -96.5q45 -45 121 -45t121 45q37 36 49 96.5t12 155.5t-12 155.5t-49 96.5q-45 45 -121 45t-121 -45q-37 -36 -49 -96.5t-12 -155.5zM986 521q0 -149 -25.5 -241t-93.5 -164q-122 -128 -323 -128t-323 128q-68 72 -93.5 164t-25.5 241
t25.5 241t93.5 164q122 128 323 128t323 -128q68 -72 93.5 -164t25.5 -241zM580 1198q-28 -18 -61 -18q-31 0 -57 18q-22 16 -55 69l-85 136q-37 59 -39 90q-5 58 54 96q28 18 61 18q32 0 57 -18q22 -16 55 -69l85 -136q37 -59 39 -90q5 -58 -54 -96z" />
    <glyph glyph-name="oacute" unicode="&#xf3;" horiz-adv-x="1088" 
d="M362 521q0 -95 12 -155.5t49 -96.5q45 -45 121 -45t121 45q37 36 49 96.5t12 155.5t-12 155.5t-49 96.5q-45 45 -121 45t-121 -45q-37 -36 -49 -96.5t-12 -155.5zM986 521q0 -149 -25.5 -241t-93.5 -164q-122 -128 -323 -128t-323 128q-68 72 -93.5 164t-25.5 241
t25.5 241t93.5 164q122 128 323 128t323 -128q68 -72 93.5 -164t25.5 -241zM510 1198q-59 38 -54 96q2 31 39 90l85 136q33 53 55 69q26 18 57 18q32 0 61 -18q59 -38 54 -96q-2 -31 -39 -90l-85 -136q-33 -53 -55 -69q-26 -18 -57 -18q-33 0 -61 18z" />
    <glyph glyph-name="ocircumflex" unicode="&#xf4;" horiz-adv-x="1088" 
d="M362 521q0 -95 12 -155.5t49 -96.5q45 -45 121 -45t121 45q37 36 49 96.5t12 155.5t-12 155.5t-49 96.5q-45 45 -121 45t-121 -45q-37 -36 -49 -96.5t-12 -155.5zM986 521q0 -149 -25.5 -241t-93.5 -164q-122 -128 -323 -128t-323 128q-68 72 -93.5 164t-25.5 241
t25.5 241t93.5 164q122 128 323 128t323 -128q68 -72 93.5 -164t25.5 -241zM666 1229l-122 121l-122 -121q-42 -42 -73 -53q-52 -17 -97 28q-44 44 -28 97q11 31 53 73l154 154q18 18 30.5 28.5t35.5 21t47 10.5t47 -10.5t35.5 -21t30.5 -28.5l154 -154q42 -42 53 -73
q16 -53 -28 -97q-45 -45 -97 -28q-31 11 -73 53z" />
    <glyph glyph-name="otilde" unicode="&#xf5;" horiz-adv-x="1088" 
d="M362 521q0 -95 12 -155.5t49 -96.5q45 -45 121 -45t121 45q37 36 49 96.5t12 155.5t-12 155.5t-49 96.5q-45 45 -121 45t-121 -45q-37 -36 -49 -96.5t-12 -155.5zM986 521q0 -149 -25.5 -241t-93.5 -164q-122 -128 -323 -128t-323 128q-68 72 -93.5 164t-25.5 241
t25.5 241t93.5 164q122 128 323 128t323 -128q68 -72 93.5 -164t25.5 -241zM522 1264q-60 34 -106 34t-87 -32q-36 -26 -65 -26q-43 0 -68 30q-21 25 -21 63q0 49 56 93q45 36 84.5 49t91.5 13q45 0 79 -9.5t80 -34.5q60 -34 106 -34t87 32q36 26 65 26q43 0 68 -30
q21 -25 21 -63q0 -49 -56 -93q-45 -36 -84.5 -49t-91.5 -13q-45 0 -79 9.5t-80 34.5z" />
    <glyph glyph-name="odieresis" unicode="&#xf6;" horiz-adv-x="1088" 
d="M362 521q0 -95 12 -155.5t49 -96.5q45 -45 121 -45t121 45q37 36 49 96.5t12 155.5t-12 155.5t-49 96.5q-45 45 -121 45t-121 -45q-37 -36 -49 -96.5t-12 -155.5zM986 521q0 -149 -25.5 -241t-93.5 -164q-122 -128 -323 -128t-323 128q-68 72 -93.5 164t-25.5 241
t25.5 241t93.5 164q122 128 323 128t323 -128q68 -72 93.5 -164t25.5 -241zM904 1334q0 -56 -39 -95t-95 -39t-95 39t-39 95t39 95t95 39t95 -39t39 -95zM452 1334q0 -56 -39 -95t-95 -39t-95 39t-39 95t39 95t95 39t95 -39t39 -95z" />
    <glyph glyph-name="divide" unicode="&#xf7;" 
d="M719 156q0 -72 -52 -123t-124 -51t-123 51t-51 123t51 123t123 51t124 -51t52 -123zM719 986q0 -72 -52 -123t-124 -51t-123 51t-51 123t51 123t123 51t124 -51t52 -123zM994 571q0 -73 -57 -103q-29 -15 -107 -15h-574q-78 0 -107 15q-57 30 -57 103t57 103
q29 15 107 15h574q78 0 107 -15q57 -30 57 -103z" />
    <glyph glyph-name="oslash" unicode="&#xf8;" horiz-adv-x="1087" 
d="M136 -4q3 30 30 76l38 63q-58 68 -80 157t-22 229q0 148 25.5 240.5t93.5 164.5q122 128 322 128q103 0 192 -37l27 45q29 48 53 63q42 26 90 -3t45 -78q-3 -30 -30 -76l-37 -61q58 -69 80 -158.5t22 -227.5q0 -149 -25.5 -241t-93.5 -164q-122 -128 -323 -128
q-107 0 -191 37l-28 -47q-29 -48 -53 -63q-42 -26 -90 3t-45 78zM383 362l254 432q-38 24 -94 24q-76 0 -121 -45q-37 -37 -48.5 -97t-11.5 -155q0 -109 21 -159zM446 249q40 -25 97 -25q76 0 122 46q37 36 48.5 96t11.5 155q0 108 -23 160z" />
    <glyph glyph-name="ugrave" unicode="&#xf9;" horiz-adv-x="1146" 
d="M749 98q-48 -53 -117.5 -81.5t-143.5 -28.5q-154 0 -246 92q-59 59 -82.5 131t-23.5 165v496q0 82 17 116q31 62 113 62t113 -62q17 -34 17 -116v-460q0 -97 50.5 -142.5t121.5 -45.5t122.5 45.5t51.5 142.5v460q0 82 17 116q31 62 113 62t113 -62q17 -34 17 -116v-703
q0 -51 -3.5 -73t-15.5 -44q-14 -27 -44.5 -43.5t-67.5 -16.5q-51 0 -83 30q-27 25 -39 76zM603 1198q-29 -18 -61 -18t-57 18q-22 16 -55 69l-85 136q-37 59 -39 90q-5 58 54 96q28 18 61 18q31 0 57 -18q22 -16 55 -69l85 -136q37 -59 39 -90q5 -58 -54 -96z" />
    <glyph glyph-name="uacute" unicode="&#xfa;" horiz-adv-x="1146" 
d="M749 98q-48 -53 -117.5 -81.5t-143.5 -28.5q-154 0 -246 92q-59 59 -82.5 131t-23.5 165v496q0 82 17 116q31 62 113 62t113 -62q17 -34 17 -116v-460q0 -97 50.5 -142.5t121.5 -45.5t122.5 45.5t51.5 142.5v460q0 82 17 116q31 62 113 62t113 -62q17 -34 17 -116v-703
q0 -51 -3.5 -73t-15.5 -44q-14 -27 -44.5 -43.5t-67.5 -16.5q-51 0 -83 30q-27 25 -39 76zM533 1198q-59 38 -54 96q2 31 39 90l85 136q33 53 55 69q26 18 57 18q33 0 61 -18q59 -38 54 -96q-2 -31 -39 -90l-85 -136q-33 -53 -55 -69q-25 -18 -57 -18t-61 18z" />
    <glyph glyph-name="ucircumflex" unicode="&#xfb;" horiz-adv-x="1146" 
d="M749 98q-48 -53 -117.5 -81.5t-143.5 -28.5q-154 0 -246 92q-59 59 -82.5 131t-23.5 165v496q0 82 17 116q31 62 113 62t113 -62q17 -34 17 -116v-460q0 -97 50.5 -142.5t121.5 -45.5t122.5 45.5t51.5 142.5v460q0 82 17 116q31 62 113 62t113 -62q17 -34 17 -116v-703
q0 -51 -3.5 -73t-15.5 -44q-14 -27 -44.5 -43.5t-67.5 -16.5q-51 0 -83 30q-27 25 -39 76zM689 1229l-122 121l-122 -121q-42 -42 -73 -53q-52 -17 -97 28q-44 44 -28 97q11 31 53 73l154 154q18 18 30.5 28.5t35.5 21t47 10.5t47 -10.5t35.5 -21t30.5 -28.5l154 -154
q42 -42 53 -73q16 -53 -28 -97q-45 -45 -97 -28q-31 11 -73 53z" />
    <glyph glyph-name="udieresis" unicode="&#xfc;" horiz-adv-x="1146" 
d="M749 98q-48 -53 -117.5 -81.5t-143.5 -28.5q-154 0 -246 92q-59 59 -82.5 131t-23.5 165v496q0 82 17 116q31 62 113 62t113 -62q17 -34 17 -116v-460q0 -97 50.5 -142.5t121.5 -45.5t122.5 45.5t51.5 142.5v460q0 82 17 116q31 62 113 62t113 -62q17 -34 17 -116v-703
q0 -51 -3.5 -73t-15.5 -44q-14 -27 -44.5 -43.5t-67.5 -16.5q-51 0 -83 30q-27 25 -39 76zM927 1334q0 -56 -39.5 -95t-94.5 -39t-94.5 39t-39.5 95t39.5 95t94.5 39t94.5 -39t39.5 -95zM475 1334q0 -56 -39.5 -95t-94.5 -39t-94.5 39t-39.5 95t39.5 95t94.5 39t94.5 -39
t39.5 -95z" />
    <glyph glyph-name="yacute" unicode="&#xfd;" horiz-adv-x="918" 
d="M178 -152q41 0 69 21t46 75l37 111l-269 793q-28 84 -15 121q12 36 45.5 58.5t75.5 22.5q29 0 50 -9.5t35.5 -30.5t22 -38t17.5 -47l166 -516l168 516q10 30 17.5 47t22 38t35.5 30.5t50 9.5q42 0 75.5 -22.5t45.5 -58.5q13 -37 -15 -121l-351 -1019q-26 -79 -79 -133
q-81 -82 -213 -82q-69 0 -100 16q-57 30 -57 103t57 103q24 12 64 12zM427 1198q-59 38 -54 96q2 31 39 90l85 136q33 53 55 69q26 18 57 18q33 0 61 -18q59 -38 54 -96q-2 -31 -39 -90l-85 -136q-33 -53 -55 -69q-25 -18 -57 -18t-61 18z" />
    <glyph glyph-name="thorn" unicode="&#xfe;" horiz-adv-x="1119" 
d="M145 -212v1466q0 82 17 116q31 62 113 62t113 -62q17 -34 17 -116v-304q90 104 252 104q161 0 252 -94q36 -37 59 -85t33 -109.5t13 -114t3 -129.5q0 -78 -3 -131t-13 -114.5t-33 -109.5t-59 -85q-91 -94 -253 -94q-82 0 -141.5 22.5t-109.5 76.5v-299q0 -82 -17 -116
q-31 -62 -113 -62t-113 62q-17 34 -17 116zM757 522q0 71 -6 118t-23.5 91t-54 65.5t-92.5 21.5t-92.5 -21.5t-54 -65.5t-23.5 -91t-6 -118q0 -56 3 -96t14 -80.5t30 -65.5t52 -40.5t79 -15.5q45 0 77 15.5t50.5 40.5t29.5 65.5t14 80.5t3 96z" />
    <glyph glyph-name="ydieresis" unicode="&#xff;" horiz-adv-x="918" 
d="M178 -152q41 0 69 21t46 75l37 111l-269 793q-28 84 -15 121q12 36 45.5 58.5t75.5 22.5q29 0 50 -9.5t35.5 -30.5t22 -38t17.5 -47l166 -516l168 516q10 30 17.5 47t22 38t35.5 30.5t50 9.5q42 0 75.5 -22.5t45.5 -58.5q13 -37 -15 -121l-351 -1019q-26 -79 -79 -133
q-81 -82 -213 -82q-69 0 -100 16q-57 30 -57 103t57 103q24 12 64 12zM821 1334q0 -56 -39.5 -95t-94.5 -39t-94.5 39t-39.5 95t39.5 95t94.5 39t94.5 -39t39.5 -95zM369 1334q0 -56 -39.5 -95t-94.5 -39t-94.5 39t-39.5 95t39.5 95t94.5 39t94.5 -39t39.5 -95z" />
    <glyph glyph-name="Amacron" unicode="&#x100;" horiz-adv-x="1272" 
d="M793 1304l411 -1090q16 -43 22 -68t0.5 -55t-29.5 -56q-40 -43 -100 -43q-45 0 -77 26q-18 15 -29.5 35.5t-29.5 69.5l-47 129h-556l-47 -129q-18 -49 -29.5 -69.5t-29.5 -35.5q-32 -26 -77 -26q-60 0 -100 43q-24 26 -29.5 56t0.5 55t22 68l411 1090q26 67 57 94
q38 34 100 34t100 -34q31 -27 57 -94zM636 1003l-191 -517h382zM449 1807h370q61 0 88 -14q48 -25 48 -86t-48 -86q-27 -14 -88 -14h-370q-61 0 -88 14q-48 25 -48 86t48 86q27 14 88 14z" />
    <glyph glyph-name="amacron" unicode="&#x101;" horiz-adv-x="1065" 
d="M487 834q-83 0 -167 -50q-46 -27 -86 -27q-46 0 -74 35q-29 35 -29 78q0 73 97 124q114 60 263 60q218 0 328.5 -92.5t110.5 -275.5v-517q0 -51 -3.5 -73t-15.5 -44q-14 -27 -44.5 -43.5t-67.5 -16.5q-51 0 -83 30q-26 24 -38 69q-58 -57 -114.5 -80t-143.5 -23
q-174 0 -266 94q-86 86 -86 234q0 132 92 217t268 85h242v52q0 85 -45 124.5t-138 39.5zM670 384v56h-198q-154 0 -154 -120q0 -56 39.5 -87t118.5 -31q53 0 88 10t66 40q23 21 31.5 50.5t8.5 81.5zM334 1450h370q61 0 88 -14q48 -25 48 -86t-48 -86q-27 -14 -88 -14h-370
q-61 0 -88 14q-48 25 -48 86t48 86q27 14 88 14z" />
    <glyph glyph-name="Abreve" unicode="&#x102;" horiz-adv-x="1272" 
d="M793 1304l411 -1090q16 -43 22 -68t0.5 -55t-29.5 -56q-40 -43 -100 -43q-45 0 -77 26q-18 15 -29.5 35.5t-29.5 69.5l-47 129h-556l-47 -129q-18 -49 -29.5 -69.5t-29.5 -35.5q-32 -26 -77 -26q-60 0 -100 43q-24 26 -29.5 56t0.5 55t22 68l411 1090q26 67 57 94
q38 34 100 34t100 -34q31 -27 57 -94zM636 1003l-191 -517h382zM634 1552q-79 0 -139 23t-119 74q-54 46 -56 94q0 35 25 66q30 34 71 34q29 0 62 -27q78 -64 156 -64t156 64q33 27 62 27q41 0 71 -34q25 -31 25 -66q-2 -48 -56 -94q-59 -51 -119 -74t-139 -23z" />
    <glyph glyph-name="abreve" unicode="&#x103;" horiz-adv-x="1065" 
d="M487 834q-83 0 -167 -50q-46 -27 -86 -27q-46 0 -74 35q-29 35 -29 78q0 73 97 124q114 60 263 60q218 0 328.5 -92.5t110.5 -275.5v-517q0 -51 -3.5 -73t-15.5 -44q-14 -27 -44.5 -43.5t-67.5 -16.5q-51 0 -83 30q-26 24 -38 69q-58 -57 -114.5 -80t-143.5 -23
q-174 0 -266 94q-86 86 -86 234q0 132 92 217t268 85h242v52q0 85 -45 124.5t-138 39.5zM670 384v56h-198q-154 0 -154 -120q0 -56 39.5 -87t118.5 -31q53 0 88 10t66 40q23 21 31.5 50.5t8.5 81.5zM519 1196q-79 0 -139 23t-119 74q-54 46 -56 94q0 35 25 66q30 34 71 34
q29 0 62 -27q78 -64 156 -64t156 64q33 27 62 27q41 0 71 -34q25 -31 25 -66q-2 -48 -56 -94q-59 -51 -119 -74t-139 -23z" />
    <glyph glyph-name="Aogonek" unicode="&#x104;" horiz-adv-x="1272" 
d="M793 1304l411 -1090q16 -43 22 -68t0.5 -55t-29.5 -56q-40 -43 -100 -43q-45 0 -77 26q-18 15 -29.5 35.5t-29.5 69.5l-47 129h-556l-47 -129q-18 -49 -29.5 -69.5t-29.5 -35.5q-32 -26 -77 -26q-60 0 -100 43q-24 26 -29.5 56t0.5 55t22 68l411 1090q26 67 57 94
q38 34 100 34t100 -34q31 -27 57 -94zM636 1003l-191 -517h382zM920 -503q-59 38 -54 96q2 31 39 90l85 136q33 53 55 69q25 18 57 18t61 -18q59 -38 54 -96q-2 -31 -39 -90l-85 -136q-33 -53 -55 -69q-26 -18 -57 -18q-33 0 -61 18z" />
    <glyph glyph-name="aogonek" unicode="&#x105;" horiz-adv-x="1065" 
d="M487 834q-83 0 -167 -50q-46 -27 -86 -27q-46 0 -74 35q-29 35 -29 78q0 73 97 124q114 60 263 60q218 0 328.5 -92.5t110.5 -275.5v-517q0 -51 -3.5 -73t-15.5 -44q-14 -27 -44.5 -43.5t-67.5 -16.5q-51 0 -83 30q-26 24 -38 69q-58 -57 -114.5 -80t-143.5 -23
q-174 0 -266 94q-86 86 -86 234q0 132 92 217t268 85h242v52q0 85 -45 124.5t-138 39.5zM670 384v56h-198q-154 0 -154 -120q0 -56 39.5 -87t118.5 -31q53 0 88 10t66 40q23 21 31.5 50.5t8.5 81.5zM584 -503q-59 38 -54 96q2 31 39 90l85 136q33 53 55 69q25 18 57 18
q33 0 61 -18q59 -38 54 -96q-2 -31 -39 -90l-85 -136q-33 -53 -55 -69q-26 -18 -57 -18q-33 0 -61 18z" />
    <glyph glyph-name="Cacute" unicode="&#x106;" horiz-adv-x="1233" 
d="M635 236q144 0 210 147q33 70 69 99q31 24 80 24q59 0 97 -38q37 -37 37 -106q0 -51 -29.5 -118t-92.5 -128q-68 -66 -154 -97t-211 -31q-231 0 -379 150q-42 42 -69.5 90t-43 92.5t-23 114.5t-9 124.5t-1.5 152.5t1.5 152.5t9 124.5t23 114.5t43 92.5t69.5 90
q148 150 379 150q125 0 211 -31t154 -97q63 -61 92.5 -128t29.5 -118q0 -69 -37 -106q-38 -38 -97 -38q-49 0 -80 24q-36 29 -69 99q-66 147 -210 147q-101 0 -169 -76q-44 -50 -57 -128t-13 -272t13 -272t57 -128q68 -76 169 -76zM608 1554q-59 38 -54 96q2 31 39 90
l85 136q33 53 55 69q26 18 57 18q32 0 61 -18q59 -38 54 -96q-2 -31 -39 -90l-85 -136q-33 -53 -55 -69q-26 -18 -57 -18q-33 0 -61 18z" />
    <glyph glyph-name="cacute" unicode="&#x107;" horiz-adv-x="962" 
d="M561 1054q117 0 204 -51q126 -64 126 -147q0 -46 -37 -85q-32 -34 -80 -34q-41 0 -90 36q-63 45 -125 45q-92 -2 -147 -68q-58 -72 -58 -228q0 -158 58 -230q56 -68 147 -68q65 0 125 44q51 38 90 38q47 0 80 -35q37 -37 37 -85q0 -79 -126 -148q-92 -50 -206 -50
q-67 0 -128.5 14.5t-124.5 52.5t-108.5 96.5t-74.5 153.5t-29 217t29 217t75 153t109 95.5t125 52t129 14.5zM527 1198q-59 38 -54 96q2 31 39 90l85 136q33 53 55 69q26 18 57 18q33 0 61 -18q59 -38 54 -96q-2 -31 -39 -90l-85 -136q-33 -53 -55 -69q-25 -18 -57 -18
t-61 18z" />
    <glyph glyph-name="Ccircumflex" unicode="&#x108;" horiz-adv-x="1233" 
d="M635 236q144 0 210 147q33 70 69 99q31 24 80 24q59 0 97 -38q37 -37 37 -106q0 -51 -29.5 -118t-92.5 -128q-68 -66 -154 -97t-211 -31q-231 0 -379 150q-42 42 -69.5 90t-43 92.5t-23 114.5t-9 124.5t-1.5 152.5t1.5 152.5t9 124.5t23 114.5t43 92.5t69.5 90
q148 150 379 150q125 0 211 -31t154 -97q63 -61 92.5 -128t29.5 -118q0 -69 -37 -106q-38 -38 -97 -38q-49 0 -80 24q-36 29 -69 99q-66 147 -210 147q-101 0 -169 -76q-44 -50 -57 -128t-13 -272t13 -272t57 -128q68 -76 169 -76zM765 1586l-122 121l-122 -121
q-42 -42 -73 -53q-52 -17 -97 28q-44 44 -28 97q11 31 53 73l154 154q18 18 30.5 28.5t35.5 21t47 10.5t47 -10.5t35.5 -21t30.5 -28.5l154 -154q42 -42 53 -73q16 -53 -28 -97q-45 -45 -97 -28q-31 11 -73 53z" />
    <glyph glyph-name="ccircumflex" unicode="&#x109;" horiz-adv-x="962" 
d="M561 1054q117 0 204 -51q126 -64 126 -147q0 -46 -37 -85q-32 -34 -80 -34q-41 0 -90 36q-63 45 -125 45q-92 -2 -147 -68q-58 -72 -58 -228q0 -158 58 -230q56 -68 147 -68q65 0 125 44q51 38 90 38q47 0 80 -35q37 -37 37 -85q0 -79 -126 -148q-92 -50 -206 -50
q-67 0 -128.5 14.5t-124.5 52.5t-108.5 96.5t-74.5 153.5t-29 217t29 217t75 153t109 95.5t125 52t129 14.5zM683 1229l-122 121l-122 -121q-42 -42 -73 -53q-52 -17 -97 28q-44 44 -28 97q11 31 53 73l154 154q18 18 30.5 28.5t35.5 21t47 10.5t47 -10.5t35.5 -21
t30.5 -28.5l154 -154q42 -42 53 -73q16 -53 -28 -97q-45 -45 -97 -28q-31 11 -73 53z" />
    <glyph glyph-name="Cdotaccent" unicode="&#x10a;" horiz-adv-x="1233" 
d="M635 236q144 0 210 147q33 70 69 99q31 24 80 24q59 0 97 -38q37 -37 37 -106q0 -51 -29.5 -118t-92.5 -128q-68 -66 -154 -97t-211 -31q-231 0 -379 150q-42 42 -69.5 90t-43 92.5t-23 114.5t-9 124.5t-1.5 152.5t1.5 152.5t9 124.5t23 114.5t43 92.5t69.5 90
q148 150 379 150q125 0 211 -31t154 -97q63 -61 92.5 -128t29.5 -118q0 -69 -37 -106q-38 -38 -97 -38q-49 0 -80 24q-36 29 -69 99q-66 147 -210 147q-101 0 -169 -76q-44 -50 -57 -128t-13 -272t13 -272t57 -128q68 -76 169 -76zM644 1564q-56 0 -95.5 39.5t-39.5 94.5
t39.5 94.5t95.5 39.5t95.5 -39.5t39.5 -94.5t-39.5 -94.5t-95.5 -39.5z" />
    <glyph glyph-name="cdotaccent" unicode="&#x10b;" horiz-adv-x="962" 
d="M561 1054q117 0 204 -51q126 -64 126 -147q0 -46 -37 -85q-32 -34 -80 -34q-41 0 -90 36q-63 45 -125 45q-92 -2 -147 -68q-58 -72 -58 -228q0 -158 58 -230q56 -68 147 -68q65 0 125 44q51 38 90 38q47 0 80 -35q37 -37 37 -85q0 -79 -126 -148q-92 -50 -206 -50
q-67 0 -128.5 14.5t-124.5 52.5t-108.5 96.5t-74.5 153.5t-29 217t29 217t75 153t109 95.5t125 52t129 14.5zM427 1342q0 55 39.5 94.5t94.5 39.5q56 0 95.5 -39.5t39.5 -94.5t-39.5 -94.5t-95.5 -39.5q-55 0 -94.5 39.5t-39.5 94.5z" />
    <glyph glyph-name="Ccaron" unicode="&#x10c;" horiz-adv-x="1233" 
d="M635 236q144 0 210 147q33 70 69 99q31 24 80 24q59 0 97 -38q37 -37 37 -106q0 -51 -29.5 -118t-92.5 -128q-68 -66 -154 -97t-211 -31q-231 0 -379 150q-42 42 -69.5 90t-43 92.5t-23 114.5t-9 124.5t-1.5 152.5t1.5 152.5t9 124.5t23 114.5t43 92.5t69.5 90
q148 150 379 150q125 0 211 -31t154 -97q63 -61 92.5 -128t29.5 -118q0 -69 -37 -106q-38 -38 -97 -38q-49 0 -80 24q-36 29 -69 99q-66 147 -210 147q-101 0 -169 -76q-44 -50 -57 -128t-13 -272t13 -272t57 -128q68 -76 169 -76zM643 1522q-24 0 -47 10.5t-35.5 21
t-30.5 28.5l-154 154q-42 42 -53 73q-16 53 28 97q43 44 96 28q30 -9 74 -53l122 -121l122 121q44 44 74 53q53 16 96 -28q44 -44 28 -97q-11 -31 -53 -73l-154 -154q-18 -18 -30.5 -28.5t-35.5 -21t-47 -10.5z" />
    <glyph glyph-name="ccaron" unicode="&#x10d;" horiz-adv-x="962" 
d="M561 1054q117 0 204 -51q126 -64 126 -147q0 -46 -37 -85q-32 -34 -80 -34q-41 0 -90 36q-63 45 -125 45q-92 -2 -147 -68q-58 -72 -58 -228q0 -158 58 -230q56 -68 147 -68q65 0 125 44q51 38 90 38q47 0 80 -35q37 -37 37 -85q0 -79 -126 -148q-92 -50 -206 -50
q-67 0 -128.5 14.5t-124.5 52.5t-108.5 96.5t-74.5 153.5t-29 217t29 217t75 153t109 95.5t125 52t129 14.5zM561 1166q-24 0 -47 10.5t-35.5 21t-30.5 28.5l-154 154q-42 42 -53 73q-16 53 28 97q43 44 96 28q30 -9 74 -53l122 -121l122 121q44 44 74 53q53 16 96 -28
q44 -44 28 -97q-11 -31 -53 -73l-154 -154q-18 -18 -30.5 -28.5t-35.5 -21t-47 -10.5z" />
    <glyph glyph-name="Dcaron" unicode="&#x10e;" horiz-adv-x="1321" 
d="M335 0q-28 0 -45 1.5t-42.5 10.5t-43.5 27t-27 43.5t-10.5 42.5t-1.5 45v1084q0 28 1.5 45t10.5 42.5t27 43.5t43.5 27t42.5 10.5t45 1.5h346q146 0 248 -49.5t182 -158.5q62 -83 77 -188.5t15 -315.5t-15 -315.5t-77 -188.5q-80 -109 -182 -158.5t-248 -49.5h-346z
M445 1176v-928h212q138 0 208 88q37 46 47.5 121.5t10.5 254.5t-10.5 254.5t-47.5 121.5q-70 88 -208 88h-212zM658 1522q-24 0 -47 10.5t-35.5 21t-30.5 28.5l-154 154q-42 42 -53 73q-16 53 28 97q43 44 96 28q30 -9 74 -53l122 -121l122 121q44 44 74 53q53 16 96 -28
q44 -44 28 -97q-11 -31 -53 -73l-154 -154q-18 -18 -30.5 -28.5t-35.5 -21t-47 -10.5z" />
    <glyph glyph-name="dcaron" unicode="&#x10f;" horiz-adv-x="1119" 
d="M974 169v1085q0 82 -17 116q-31 62 -113 62t-113 -62q-17 -34 -17 -116v-304q-90 104 -252 104q-161 0 -252 -94q-36 -37 -59 -85t-33 -109.5t-13 -114t-3 -129.5q0 -78 3 -131t13 -114.5t33 -109.5t59 -85q91 -94 253 -94q85 0 146 25t113 83q12 -50 38 -74
q32 -30 83 -30q37 0 67.5 16.5t44.5 43.5q12 22 15.5 44t3.5 73zM362 522q0 71 6 118t23.5 91t54 65.5t92.5 21.5t92.5 -21.5t54 -65.5t23.5 -91t6 -118q0 -56 -3 -96t-14 -80.5t-30 -65.5t-52 -40.5t-79 -15.5q-45 0 -77 15.5t-50.5 40.5t-29.5 65.5t-14 80.5t-3 96z
M1096 1309l51 154q20 63 44 87q27 27 68 27q39 0 70.5 -21.5t40.5 -55.5q10 -38 -14 -107l-51 -154q-20 -63 -44 -87q-27 -27 -68 -27q-39 0 -70.5 21.5t-40.5 55.5q-10 38 14 107z" />
    <glyph glyph-name="Dcroat" unicode="&#x110;" horiz-adv-x="1371" 
d="M183 609q-68 0 -97 15q-51 28 -51 94t51 94q29 15 97 15h32v427q0 28 1.5 45t10.5 42.5t27 43.5t43.5 27t42.5 10.5t45 1.5h346q146 0 248 -49.5t182 -158.5q62 -83 77 -188.5t15 -315.5t-15 -315.5t-77 -188.5q-80 -109 -182 -158.5t-248 -49.5h-346q-28 0 -45 1.5
t-42.5 10.5t-43.5 27t-27 43.5t-10.5 42.5t-1.5 45v439h-32zM495 1176v-349h110q69 0 97 -15q51 -28 51 -94t-51 -94q-28 -15 -97 -15h-110v-361h212q138 0 208 88q37 46 47.5 121.5t10.5 254.5t-10.5 254.5t-47.5 121.5q-70 88 -208 88h-212z" />
    <glyph glyph-name="dcroat" unicode="&#x111;" horiz-adv-x="1119" 
d="M554 1128q-48 25 -48 86q0 63 48 86q27 14 88 14h73q3 31 16 56q31 62 113 62t113 -62q12 -26 15 -56q56 -1 81 -14q48 -23 48 -86q0 -61 -48 -86q-25 -14 -79 -14v-945q0 -51 -3.5 -73t-15.5 -44q-14 -27 -44.5 -43.5t-67.5 -16.5q-50 0 -83 30q-27 25 -39 74
q-52 -58 -113 -83t-145 -25q-162 0 -253 94q-36 37 -59 85t-33 109.5t-13 114.5t-3 131q0 77 3 129.5t13 114t33 109.5t59 85q91 94 252 94q162 0 252 -104v164h-72q-61 0 -88 14zM362 522q0 -56 3 -96t14 -80.5t29.5 -65.5t50.5 -40.5t77 -15.5q46 0 79 15.5t52 40.5
t30 65.5t14 80.5t3 96q0 71 -6 118t-23.5 91t-54 65.5t-92.5 21.5t-92.5 -21.5t-54 -65.5t-23.5 -91t-6 -118z" />
    <glyph glyph-name="Emacron" unicode="&#x112;" horiz-adv-x="1207" 
d="M335 0q-28 0 -45 1.5t-42.5 10.5t-43.5 27t-27 43.5t-10.5 42.5t-1.5 45v1084q0 28 1.5 45t10.5 42.5t27 43.5t43.5 27t42.5 10.5t45 1.5h610q78 0 109 -16q27 -14 43 -43t16 -65t-16 -65t-43 -43q-31 -16 -109 -16h-500v-334h404q78 0 109 -16q27 -14 43 -43t16 -65
t-16 -65t-43 -43q-31 -16 -109 -16h-404v-346h500q78 0 109 -16q27 -14 43 -43t16 -65t-16 -65t-43 -43q-31 -16 -109 -16h-610zM445 1807h370q61 0 88 -14q48 -25 48 -86t-48 -86q-27 -14 -88 -14h-370q-61 0 -88 14q-48 25 -48 86t48 86q27 14 88 14z" />
    <glyph glyph-name="emacron" unicode="&#x113;" horiz-adv-x="1091" 
d="M745 618q-3 68 -23 113q-22 49 -67 78t-108 29t-108 -29t-66 -78q-22 -48 -23 -113h395zM851 440h-501q0 -104 60 -168t170 -64q105 0 180 56q55 39 97 39q39 0 72 -32.5t33 -76.5q0 -66 -102 -134q-106 -72 -284 -72q-78 0 -145 14.5t-131 52t-108 96.5t-71 153.5
t-27 216.5q0 251 123.5 392t329.5 141q205 0 325.5 -130.5t127.5 -334.5q2 -79 -35 -116q-15 -15 -36.5 -23t-36.5 -9t-41 -1zM368 1450h370q61 0 88 -14q48 -25 48 -86t-48 -86q-27 -14 -88 -14h-370q-61 0 -88 14q-48 25 -48 86t48 86q27 14 88 14z" />
    <glyph glyph-name="Ebreve" unicode="&#x114;" horiz-adv-x="1207" 
d="M335 0q-28 0 -45 1.5t-42.5 10.5t-43.5 27t-27 43.5t-10.5 42.5t-1.5 45v1084q0 28 1.5 45t10.5 42.5t27 43.5t43.5 27t42.5 10.5t45 1.5h610q78 0 109 -16q27 -14 43 -43t16 -65t-16 -65t-43 -43q-31 -16 -109 -16h-500v-334h404q78 0 109 -16q27 -14 43 -43t16 -65
t-16 -65t-43 -43q-31 -16 -109 -16h-404v-346h500q78 0 109 -16q27 -14 43 -43t16 -65t-16 -65t-43 -43q-31 -16 -109 -16h-610zM630 1552q-79 0 -139 23t-119 74q-54 46 -56 94q0 35 25 66q30 34 71 34q29 0 62 -27q78 -64 156 -64t156 64q33 27 62 27q41 0 71 -34
q25 -31 25 -66q-2 -48 -56 -94q-59 -51 -119 -74t-139 -23z" />
    <glyph glyph-name="ebreve" unicode="&#x115;" horiz-adv-x="1091" 
d="M745 618q-3 68 -23 113q-22 49 -67 78t-108 29t-108 -29t-66 -78q-22 -48 -23 -113h395zM851 440h-501q0 -104 60 -168t170 -64q105 0 180 56q55 39 97 39q39 0 72 -32.5t33 -76.5q0 -66 -102 -134q-106 -72 -284 -72q-78 0 -145 14.5t-131 52t-108 96.5t-71 153.5
t-27 216.5q0 251 123.5 392t329.5 141q205 0 325.5 -130.5t127.5 -334.5q2 -79 -35 -116q-15 -15 -36.5 -23t-36.5 -9t-41 -1zM533 1196q-79 0 -139 23t-119 74q-54 46 -56 94q0 35 25 66q30 34 71 34q29 0 62 -27q78 -64 156 -64t156 64q33 27 62 27q41 0 71 -34
q25 -31 25 -66q-2 -48 -56 -94q-59 -51 -119 -74t-139 -23z" />
    <glyph glyph-name="Edotaccent" unicode="&#x116;" horiz-adv-x="1207" 
d="M335 0q-28 0 -45 1.5t-42.5 10.5t-43.5 27t-27 43.5t-10.5 42.5t-1.5 45v1084q0 28 1.5 45t10.5 42.5t27 43.5t43.5 27t42.5 10.5t45 1.5h610q78 0 109 -16q27 -14 43 -43t16 -65t-16 -65t-43 -43q-31 -16 -109 -16h-500v-334h404q78 0 109 -16q27 -14 43 -43t16 -65
t-16 -65t-43 -43q-31 -16 -109 -16h-404v-346h500q78 0 109 -16q27 -14 43 -43t16 -65t-16 -65t-43 -43q-31 -16 -109 -16h-610zM631 1564q-56 0 -95.5 39.5t-39.5 94.5t39.5 94.5t95.5 39.5t95.5 -39.5t39.5 -94.5t-39.5 -94.5t-95.5 -39.5z" />
    <glyph glyph-name="edotaccent" unicode="&#x117;" horiz-adv-x="1091" 
d="M745 618q-3 68 -23 113q-22 49 -67 78t-108 29t-108 -29t-66 -78q-22 -48 -23 -113h395zM851 440h-501q0 -104 60 -168t170 -64q105 0 180 56q55 39 97 39q39 0 72 -32.5t33 -76.5q0 -66 -102 -134q-106 -72 -284 -72q-78 0 -145 14.5t-131 52t-108 96.5t-71 153.5
t-27 216.5q0 251 123.5 392t329.5 141q205 0 325.5 -130.5t127.5 -334.5q2 -79 -35 -116q-15 -15 -36.5 -23t-36.5 -9t-41 -1zM419 1342q0 55 39.5 94.5t94.5 39.5q56 0 95.5 -39.5t39.5 -94.5t-39.5 -94.5t-95.5 -39.5q-55 0 -94.5 39.5t-39.5 94.5z" />
    <glyph glyph-name="Eogonek" unicode="&#x118;" horiz-adv-x="1207" 
d="M335 0q-28 0 -45 1.5t-42.5 10.5t-43.5 27t-27 43.5t-10.5 42.5t-1.5 45v1084q0 28 1.5 45t10.5 42.5t27 43.5t43.5 27t42.5 10.5t45 1.5h610q78 0 109 -16q27 -14 43 -43t16 -65t-16 -65t-43 -43q-31 -16 -109 -16h-500v-334h404q78 0 109 -16q27 -14 43 -43t16 -65
t-16 -65t-43 -43q-31 -16 -109 -16h-404v-346h500q78 0 109 -16q27 -14 43 -43t16 -65t-16 -65t-43 -43q-31 -16 -109 -16h-610zM791 -503q-59 38 -54 96q2 31 39 90l85 136q33 53 55 69q26 18 57 18q33 0 61 -18q59 -38 54 -96q-2 -31 -39 -90l-85 -136q-33 -53 -55 -69
q-25 -18 -57 -18t-61 18z" />
    <glyph glyph-name="eogonek" unicode="&#x119;" horiz-adv-x="1091" 
d="M745 618q-3 68 -23 113q-22 49 -67 78t-108 29t-108 -29t-66 -78q-22 -48 -23 -113h395zM851 440h-501q0 -104 60 -168t170 -64q105 0 180 56q55 39 97 39q39 0 72 -32.5t33 -76.5q0 -66 -102 -134q-106 -72 -284 -72q-78 0 -145 14.5t-131 52t-108 96.5t-71 153.5
t-27 216.5q0 251 123.5 392t329.5 141q205 0 325.5 -130.5t127.5 -334.5q2 -79 -35 -116q-15 -15 -36.5 -23t-36.5 -9t-41 -1zM526 -503q-59 38 -54 96q2 31 39 90l85 136q33 53 55 69q25 18 57 18t61 -18q59 -38 54 -96q-2 -31 -39 -90l-85 -136q-33 -53 -55 -69
q-26 -18 -57 -18q-33 0 -61 18z" />
    <glyph glyph-name="Ecaron" unicode="&#x11a;" horiz-adv-x="1207" 
d="M335 0q-28 0 -45 1.5t-42.5 10.5t-43.5 27t-27 43.5t-10.5 42.5t-1.5 45v1084q0 28 1.5 45t10.5 42.5t27 43.5t43.5 27t42.5 10.5t45 1.5h610q78 0 109 -16q27 -14 43 -43t16 -65t-16 -65t-43 -43q-31 -16 -109 -16h-500v-334h404q78 0 109 -16q27 -14 43 -43t16 -65
t-16 -65t-43 -43q-31 -16 -109 -16h-404v-346h500q78 0 109 -16q27 -14 43 -43t16 -65t-16 -65t-43 -43q-31 -16 -109 -16h-610zM630 1522q-24 0 -47 10.5t-35.5 21t-30.5 28.5l-154 154q-42 42 -53 73q-16 53 28 97q43 44 96 28q30 -9 74 -53l122 -121l122 121q44 44 74 53
q53 16 96 -28q44 -44 28 -97q-11 -31 -53 -73l-154 -154q-18 -18 -30.5 -28.5t-35.5 -21t-47 -10.5z" />
    <glyph glyph-name="ecaron" unicode="&#x11b;" horiz-adv-x="1091" 
d="M745 618q-3 68 -23 113q-22 49 -67 78t-108 29t-108 -29t-66 -78q-22 -48 -23 -113h395zM851 440h-501q0 -104 60 -168t170 -64q105 0 180 56q55 39 97 39q39 0 72 -32.5t33 -76.5q0 -66 -102 -134q-106 -72 -284 -72q-78 0 -145 14.5t-131 52t-108 96.5t-71 153.5
t-27 216.5q0 251 123.5 392t329.5 141q205 0 325.5 -130.5t127.5 -334.5q2 -79 -35 -116q-15 -15 -36.5 -23t-36.5 -9t-41 -1zM553 1166q-24 0 -47 10.5t-35.5 21t-30.5 28.5l-154 154q-42 42 -53 73q-16 53 28 97q43 44 96 28q30 -9 74 -53l122 -121l122 121q44 44 74 53
q53 16 96 -28q44 -44 28 -97q-11 -31 -53 -73l-154 -154q-18 -18 -30.5 -28.5t-35.5 -21t-47 -10.5z" />
    <glyph glyph-name="Gcircumflex" unicode="&#x11c;" horiz-adv-x="1270" 
d="M396 712q0 -199 14 -276.5t55 -123.5q66 -76 179 -76q108 0 177 72q37 38 50.5 86t13.5 125h-100q-75 0 -109 17q-26 13 -42.5 42t-16.5 65t16 65t43 43q32 16 109 16h195q28 0 45 -1.5t42.5 -10.5t43.5 -27t27 -43.5t10.5 -42.5t1.5 -45v-15q0 -161 -28 -263t-104 -178
q-81 -81 -169.5 -117t-204.5 -36q-234 0 -382 150q-42 42 -69.5 90t-43 92.5t-23 114.5t-9 124.5t-1.5 152.5t1.5 152.5t9 124.5t23 114.5t43 92.5t69.5 90q148 150 379 150q125 0 211 -31t154 -97q63 -61 92.5 -128t29.5 -118q0 -69 -37 -106q-38 -38 -97 -38q-49 0 -80 24
q-36 29 -69 99q-66 147 -210 147q-101 0 -169 -76q-44 -50 -57 -128t-13 -272zM765 1586l-122 121l-122 -121q-42 -42 -73 -53q-52 -17 -97 28q-44 44 -28 97q11 31 53 73l154 154q18 18 30.5 28.5t35.5 21t47 10.5t47 -10.5t35.5 -21t30.5 -28.5l154 -154q42 -42 53 -73
q16 -53 -28 -97q-45 -45 -97 -28q-31 11 -73 53z" />
    <glyph glyph-name="gcircumflex" unicode="&#x11d;" horiz-adv-x="1109" 
d="M506 -394q-156 0 -262 58q-104 58 -104 132q0 47 33 79t71 32q42 0 97 -33q80 -48 154 -48t123 33t67.5 79.5t18.5 103.5v106q-93 -104 -248 -104q-156 0 -248 92q-67 67 -86.5 160.5t-19.5 253.5t19.5 252.5t86.5 159.5q92 92 250 92q83 0 142 -25.5t111 -84.5
q12 51 39 76q32 30 83 30q37 0 67.5 -16.5t44.5 -43.5q12 -22 15.5 -44t3.5 -73v-835q0 -190 -125.5 -311t-332.5 -121zM704 550q0 47 -3 81.5t-13.5 71.5t-28.5 60.5t-50 39t-77 15.5t-77 -15.5t-49.5 -39t-27.5 -61t-13 -71.5t-3 -81t3 -81.5t13 -72.5t27.5 -61.5
t49.5 -39t77 -15.5t77 15.5t50 39.5t28.5 61.5t13.5 72t3 81.5zM656 1229l-122 121l-122 -121q-42 -42 -73 -53q-52 -17 -97 28q-44 44 -28 97q11 31 53 73l154 154q18 18 30.5 28.5t35.5 21t47 10.5t47 -10.5t35.5 -21t30.5 -28.5l154 -154q42 -42 53 -73q16 -53 -28 -97
q-45 -45 -97 -28q-31 11 -73 53z" />
    <glyph glyph-name="Gbreve" unicode="&#x11e;" horiz-adv-x="1270" 
d="M396 712q0 -199 14 -276.5t55 -123.5q66 -76 179 -76q108 0 177 72q37 38 50.5 86t13.5 125h-100q-75 0 -109 17q-26 13 -42.5 42t-16.5 65t16 65t43 43q32 16 109 16h195q28 0 45 -1.5t42.5 -10.5t43.5 -27t27 -43.5t10.5 -42.5t1.5 -45v-15q0 -161 -28 -263t-104 -178
q-81 -81 -169.5 -117t-204.5 -36q-234 0 -382 150q-42 42 -69.5 90t-43 92.5t-23 114.5t-9 124.5t-1.5 152.5t1.5 152.5t9 124.5t23 114.5t43 92.5t69.5 90q148 150 379 150q125 0 211 -31t154 -97q63 -61 92.5 -128t29.5 -118q0 -69 -37 -106q-38 -38 -97 -38q-49 0 -80 24
q-36 29 -69 99q-66 147 -210 147q-101 0 -169 -76q-44 -50 -57 -128t-13 -272zM643 1552q-79 0 -139 23t-119 74q-54 46 -56 94q0 35 25 66q30 34 71 34q29 0 62 -27q78 -64 156 -64t156 64q33 27 62 27q41 0 71 -34q25 -31 25 -66q-2 -48 -56 -94q-59 -51 -119 -74
t-139 -23z" />
    <glyph glyph-name="gbreve" unicode="&#x11f;" horiz-adv-x="1109" 
d="M506 -394q-156 0 -262 58q-104 58 -104 132q0 47 33 79t71 32q42 0 97 -33q80 -48 154 -48t123 33t67.5 79.5t18.5 103.5v106q-93 -104 -248 -104q-156 0 -248 92q-67 67 -86.5 160.5t-19.5 253.5t19.5 252.5t86.5 159.5q92 92 250 92q83 0 142 -25.5t111 -84.5
q12 51 39 76q32 30 83 30q37 0 67.5 -16.5t44.5 -43.5q12 -22 15.5 -44t3.5 -73v-835q0 -190 -125.5 -311t-332.5 -121zM704 550q0 47 -3 81.5t-13.5 71.5t-28.5 60.5t-50 39t-77 15.5t-77 -15.5t-49.5 -39t-27.5 -61t-13 -71.5t-3 -81t3 -81.5t13 -72.5t27.5 -61.5
t49.5 -39t77 -15.5t77 15.5t50 39.5t28.5 61.5t13.5 72t3 81.5zM534 1196q-79 0 -139 23t-119 74q-54 46 -56 94q0 35 25 66q30 34 71 34q29 0 62 -27q78 -64 156 -64t156 64q33 27 62 27q41 0 71 -34q25 -31 25 -66q-2 -48 -56 -94q-59 -51 -119 -74t-139 -23z" />
    <glyph glyph-name="Gdotaccent" unicode="&#x120;" horiz-adv-x="1270" 
d="M396 712q0 -199 14 -276.5t55 -123.5q66 -76 179 -76q108 0 177 72q37 38 50.5 86t13.5 125h-100q-75 0 -109 17q-26 13 -42.5 42t-16.5 65t16 65t43 43q32 16 109 16h195q28 0 45 -1.5t42.5 -10.5t43.5 -27t27 -43.5t10.5 -42.5t1.5 -45v-15q0 -161 -28 -263t-104 -178
q-81 -81 -169.5 -117t-204.5 -36q-234 0 -382 150q-42 42 -69.5 90t-43 92.5t-23 114.5t-9 124.5t-1.5 152.5t1.5 152.5t9 124.5t23 114.5t43 92.5t69.5 90q148 150 379 150q125 0 211 -31t154 -97q63 -61 92.5 -128t29.5 -118q0 -69 -37 -106q-38 -38 -97 -38q-49 0 -80 24
q-36 29 -69 99q-66 147 -210 147q-101 0 -169 -76q-44 -50 -57 -128t-13 -272zM644 1564q-56 0 -95.5 39.5t-39.5 94.5t39.5 94.5t95.5 39.5t95.5 -39.5t39.5 -94.5t-39.5 -94.5t-95.5 -39.5z" />
    <glyph glyph-name="gdotaccent" unicode="&#x121;" horiz-adv-x="1109" 
d="M506 -394q-156 0 -262 58q-104 58 -104 132q0 47 33 79t71 32q42 0 97 -33q80 -48 154 -48t123 33t67.5 79.5t18.5 103.5v106q-93 -104 -248 -104q-156 0 -248 92q-67 67 -86.5 160.5t-19.5 253.5t19.5 252.5t86.5 159.5q92 92 250 92q83 0 142 -25.5t111 -84.5
q12 51 39 76q32 30 83 30q37 0 67.5 -16.5t44.5 -43.5q12 -22 15.5 -44t3.5 -73v-835q0 -190 -125.5 -311t-332.5 -121zM704 550q0 47 -3 81.5t-13.5 71.5t-28.5 60.5t-50 39t-77 15.5t-77 -15.5t-49.5 -39t-27.5 -61t-13 -71.5t-3 -81t3 -81.5t13 -72.5t27.5 -61.5
t49.5 -39t77 -15.5t77 15.5t50 39.5t28.5 61.5t13.5 72t3 81.5zM400 1342q0 55 39.5 94.5t94.5 39.5q56 0 95.5 -39.5t39.5 -94.5t-39.5 -94.5t-95.5 -39.5q-55 0 -94.5 39.5t-39.5 94.5z" />
    <glyph glyph-name="Gcommaaccent" unicode="&#x122;" horiz-adv-x="1270" 
d="M396 712q0 -199 14 -276.5t55 -123.5q66 -76 179 -76q108 0 177 72q37 38 50.5 86t13.5 125h-100q-75 0 -109 17q-26 13 -42.5 42t-16.5 65t16 65t43 43q32 16 109 16h195q28 0 45 -1.5t42.5 -10.5t43.5 -27t27 -43.5t10.5 -42.5t1.5 -45v-15q0 -161 -28 -263t-104 -178
q-81 -81 -169.5 -117t-204.5 -36q-234 0 -382 150q-42 42 -69.5 90t-43 92.5t-23 114.5t-9 124.5t-1.5 152.5t1.5 152.5t9 124.5t23 114.5t43 92.5t69.5 90q148 150 379 150q125 0 211 -31t154 -97q63 -61 92.5 -128t29.5 -118q0 -69 -37 -106q-38 -38 -97 -38q-49 0 -80 24
q-36 29 -69 99q-66 147 -210 147q-101 0 -169 -76q-44 -50 -57 -128t-13 -272zM475 -503q-59 38 -54 96q2 31 39 90l85 136q33 53 55 69q26 18 57 18q33 0 61 -18q59 -38 54 -96q-2 -31 -39 -90l-85 -136q-33 -53 -55 -69q-25 -18 -57 -18t-61 18z" />
    <glyph glyph-name="gcommaaccent" unicode="&#x123;" horiz-adv-x="1109" 
d="M506 -394q-156 0 -262 58q-104 58 -104 132q0 47 33 79t71 32q42 0 97 -33q80 -48 154 -48t123 33t67.5 79.5t18.5 103.5v106q-93 -104 -248 -104q-156 0 -248 92q-67 67 -86.5 160.5t-19.5 253.5t19.5 252.5t86.5 159.5q92 92 250 92q83 0 142 -25.5t111 -84.5
q12 51 39 76q32 30 83 30q37 0 67.5 -16.5t44.5 -43.5q12 -22 15.5 -44t3.5 -73v-835q0 -190 -125.5 -311t-332.5 -121zM704 550q0 47 -3 81.5t-13.5 71.5t-28.5 60.5t-50 39t-77 15.5t-77 -15.5t-49.5 -39t-27.5 -61t-13 -71.5t-3 -81t3 -81.5t13 -72.5t27.5 -61.5
t49.5 -39t77 -15.5t77 15.5t50 39.5t28.5 61.5t13.5 72t3 81.5zM498 1198q-59 38 -54 96q2 31 39 90l85 136q33 53 55 69q25 18 57 18t61 -18q59 -38 54 -96q-2 -31 -39 -90l-85 -136q-33 -53 -55 -69q-26 -18 -57 -18q-33 0 -61 18z" />
    <glyph glyph-name="Hcircumflex" unicode="&#x124;" horiz-adv-x="1372" 
d="M445 596v-416q0 -51 -3.5 -74t-15.5 -48q-16 -30 -48.5 -48t-72.5 -18t-72.5 18t-48.5 48q-12 25 -15.5 48t-3.5 74v1064q0 51 3.5 74t15.5 48q16 30 48.5 48t72.5 18t72.5 -18t48.5 -48q12 -25 15.5 -48t3.5 -74v-400h482v400q0 51 3.5 74t15.5 48q16 30 48.5 48
t72.5 18t72.5 -18t48.5 -48q12 -25 15.5 -48t3.5 -74v-1064q0 -51 -3.5 -74t-15.5 -48q-16 -30 -48.5 -48t-72.5 -18t-72.5 18t-48.5 48q-12 25 -15.5 48t-3.5 74v416h-482zM807 1586l-122 121l-122 -121q-42 -42 -73 -53q-52 -17 -97 28q-44 44 -28 97q11 31 53 73l154 154
q18 18 30.5 28.5t35.5 21t47 10.5t47 -10.5t35.5 -21t30.5 -28.5l154 -154q42 -42 53 -73q16 -53 -28 -97q-45 -45 -97 -28q-31 11 -73 53z" />
    <glyph glyph-name="hcircumflex" unicode="&#x125;" horiz-adv-x="1146" 
d="M1011 170q0 -82 -17 -116q-31 -62 -113 -62t-113 62q-17 34 -17 116v460q0 97 -50.5 142.5t-121.5 45.5t-122.5 -45.5t-51.5 -142.5v-460q0 -82 -17 -116q-31 -62 -113 -62t-113 62q-17 34 -17 116v1084q0 82 17 116q31 62 113 62t113 -62q17 -34 17 -116v-308
q105 108 254 108q154 0 246 -92q59 -59 82.5 -131t23.5 -165v-496zM396 1577l-122 121l-122 -121q-42 -42 -73 -53q-52 -17 -97 28q-44 44 -28 97q11 31 53 73l154 154q18 18 30.5 28.5t35.5 21t47 10.5t47 -10.5t35.5 -21t30.5 -28.5l154 -154q42 -42 53 -73
q16 -53 -28 -97q-45 -45 -97 -28q-31 11 -73 53z" />
    <glyph glyph-name="Hbar" unicode="&#x126;" horiz-adv-x="1470" 
d="M494 596v-416q0 -51 -3.5 -74t-15.5 -48q-16 -30 -48.5 -48t-72.5 -18t-72.5 18t-48.5 48q-12 25 -15.5 48t-3.5 74v833h-32q-68 0 -97 15q-51 28 -51 94t51 94q29 15 97 15h32v13q0 51 3.5 74t15.5 48q16 30 48.5 48t72.5 18t72.5 -18t48.5 -48q12 -25 15.5 -48t3.5 -74
v-13h482v13q0 51 3.5 74t15.5 48q16 30 48.5 48t72.5 18t72.5 -18t48.5 -48q12 -25 15.5 -48t3.5 -74v-13h32q69 0 97 -15q51 -28 51 -94t-51 -94q-28 -15 -97 -15h-32v-833q0 -51 -3.5 -74t-15.5 -48q-16 -30 -48.5 -48t-72.5 -18t-72.5 18t-48.5 48q-12 25 -15.5 48
t-3.5 74v416h-482zM494 842h482v171h-482v-171z" />
    <glyph glyph-name="hbar" unicode="&#x127;" horiz-adv-x="1147" 
d="M1012 170q0 -82 -17 -116q-31 -62 -113 -62t-113 62q-17 34 -17 116v460q0 97 -50.5 142.5t-121.5 45.5t-122.5 -45.5t-51.5 -142.5v-460q0 -82 -17 -116q-31 -62 -113 -62t-113 62q-17 34 -17 116v944q-56 0 -80 14q-48 25 -48 86t48 86q25 13 81 14q3 31 16 56
q31 62 113 62t113 -62q12 -26 15 -56h78q61 0 88 -14q48 -25 48 -86t-48 -86q-27 -14 -88 -14h-76v-168q105 108 254 108q154 0 246 -92q59 -59 82.5 -131t23.5 -165v-496z" />
    <glyph glyph-name="Itilde" unicode="&#x128;" horiz-adv-x="610" 
d="M445 1244v-1064q0 -51 -3.5 -74t-15.5 -48q-16 -30 -48.5 -48t-72.5 -18t-72.5 18t-48.5 48q-12 25 -15.5 48t-3.5 74v1064q0 51 3.5 74t15.5 48q16 30 48.5 48t72.5 18t72.5 -18t48.5 -48q12 -25 15.5 -48t3.5 -74zM283 1615q-60 34 -106 34t-87 -32q-36 -26 -65 -26
q-43 0 -68 30q-21 25 -21 63q0 49 56 93q45 36 84.5 49t91.5 13q45 0 79 -9.5t80 -34.5q60 -34 106 -34t87 32q36 26 65 26q43 0 68 -30q21 -25 21 -63q0 -49 -56 -93q-45 -36 -84.5 -49t-91.5 -13q-45 0 -79 9.5t-80 34.5z" />
    <glyph glyph-name="itilde" unicode="&#x129;" horiz-adv-x="550" 
d="M405 170q0 -82 -17 -116q-31 -62 -113 -62t-113 62q-17 34 -17 116v672q0 82 17 116q31 62 113 62t113 -62q17 -34 17 -116v-672zM253 1264q-60 34 -106 34t-87 -32q-36 -26 -65 -26q-43 0 -68 30q-21 25 -21 63q0 49 56 93q45 36 84.5 49t91.5 13q45 0 79 -9.5t80 -34.5
q60 -34 106 -34t87 32q36 26 65 26q43 0 68 -30q21 -25 21 -63q0 -49 -56 -93q-45 -36 -84.5 -49t-91.5 -13q-45 0 -79 9.5t-80 34.5z" />
    <glyph glyph-name="Imacron" unicode="&#x12a;" horiz-adv-x="610" 
d="M445 1244v-1064q0 -51 -3.5 -74t-15.5 -48q-16 -30 -48.5 -48t-72.5 -18t-72.5 18t-48.5 48q-12 25 -15.5 48t-3.5 74v1064q0 51 3.5 74t15.5 48q16 30 48.5 48t72.5 18t72.5 -18t48.5 -48q12 -25 15.5 -48t3.5 -74zM120 1807h370q61 0 88 -14q48 -25 48 -86t-48 -86
q-27 -14 -88 -14h-370q-61 0 -88 14q-48 25 -48 86t48 86q27 14 88 14z" />
    <glyph glyph-name="imacron" unicode="&#x12b;" horiz-adv-x="550" 
d="M405 170q0 -82 -17 -116q-31 -62 -113 -62t-113 62q-17 34 -17 116v672q0 82 17 116q31 62 113 62t113 -62q17 -34 17 -116v-672zM92 1450h370q61 0 88 -14q48 -25 48 -86t-48 -86q-27 -14 -88 -14h-370q-61 0 -88 14q-48 25 -48 86t48 86q27 14 88 14z" />
    <glyph glyph-name="Ibreve" unicode="&#x12c;" horiz-adv-x="610" 
d="M445 1244v-1064q0 -51 -3.5 -74t-15.5 -48q-16 -30 -48.5 -48t-72.5 -18t-72.5 18t-48.5 48q-12 25 -15.5 48t-3.5 74v1064q0 51 3.5 74t15.5 48q16 30 48.5 48t72.5 18t72.5 -18t48.5 -48q12 -25 15.5 -48t3.5 -74zM305 1552q-79 0 -139 23t-119 74q-54 46 -56 94
q0 35 25 66q30 34 71 34q29 0 62 -27q78 -64 156 -64t156 64q33 27 62 27q41 0 71 -34q25 -31 25 -66q-2 -48 -56 -94q-59 -51 -119 -74t-139 -23z" />
    <glyph glyph-name="ibreve" unicode="&#x12d;" horiz-adv-x="550" 
d="M405 170q0 -82 -17 -116q-31 -62 -113 -62t-113 62q-17 34 -17 116v672q0 82 17 116q31 62 113 62t113 -62q17 -34 17 -116v-672zM275 1196q-79 0 -139 23t-119 74q-54 46 -56 94q0 35 25 66q30 34 71 34q29 0 62 -27q78 -64 156 -64t156 64q33 27 62 27q41 0 71 -34
q25 -31 25 -66q-2 -48 -56 -94q-59 -51 -119 -74t-139 -23z" />
    <glyph glyph-name="Iogonek" unicode="&#x12e;" horiz-adv-x="610" 
d="M445 1244v-1064q0 -51 -3.5 -74t-15.5 -48q-16 -30 -48.5 -48t-72.5 -18t-72.5 18t-48.5 48q-12 25 -15.5 48t-3.5 74v1064q0 51 3.5 74t15.5 48q16 30 48.5 48t72.5 18t72.5 -18t48.5 -48q12 -25 15.5 -48t3.5 -74zM117 -503q-59 38 -54 96q2 31 39 90l85 136
q33 53 55 69q26 18 57 18q33 0 61 -18q59 -38 54 -96q-2 -31 -39 -90l-85 -136q-33 -53 -55 -69q-26 -18 -57 -18q-32 0 -61 18z" />
    <glyph glyph-name="iogonek" unicode="&#x12f;" horiz-adv-x="550" 
d="M405 170q0 -82 -17 -116q-31 -62 -113 -62t-113 62q-17 34 -17 116v672q0 82 17 116q31 62 113 62t113 -62q17 -34 17 -116v-672zM125 1335q0 62 44 106t106 44t106 -44t44 -106t-44 -106t-106 -44t-106 44t-44 106zM78 -503q-59 38 -54 96q2 31 39 90l85 136
q33 53 55 69q26 18 57 18q32 0 61 -18q59 -38 54 -96q-2 -31 -39 -90l-85 -136q-33 -53 -55 -69q-25 -18 -57 -18q-33 0 -61 18z" />
    <glyph glyph-name="Idotaccent" unicode="&#x130;" horiz-adv-x="610" 
d="M445 1244v-1064q0 -51 -3.5 -74t-15.5 -48q-16 -30 -48.5 -48t-72.5 -18t-72.5 18t-48.5 48q-12 25 -15.5 48t-3.5 74v1064q0 51 3.5 74t15.5 48q16 30 48.5 48t72.5 18t72.5 -18t48.5 -48q12 -25 15.5 -48t3.5 -74zM306 1564q-56 0 -95.5 39.5t-39.5 94.5t39.5 94.5
t95.5 39.5t95.5 -39.5t39.5 -94.5t-39.5 -94.5t-95.5 -39.5z" />
    <glyph glyph-name="dotlessi" unicode="&#x131;" horiz-adv-x="550" 
d="M405 170q0 -82 -17 -116q-31 -62 -113 -62t-113 62q-17 34 -17 116v672q0 82 17 116q31 62 113 62t113 -62q17 -34 17 -116v-672z" />
    <glyph glyph-name="IJ" unicode="&#x132;" horiz-adv-x="1632" 
d="M445 1244v-1064q0 -51 -3.5 -74t-15.5 -48q-16 -30 -48.5 -48t-72.5 -18t-72.5 18t-48.5 48q-12 25 -15.5 48t-3.5 74v1064q0 51 3.5 74t15.5 48q16 30 48.5 48t72.5 18t72.5 -18t48.5 -48q12 -25 15.5 -48t3.5 -74zM983 236q105 0 164.5 62t59.5 182v764q0 51 3.5 74
t15.5 48q16 30 48.5 48t72.5 18t72.5 -18t48.5 -48q12 -25 15.5 -48t3.5 -74v-776q0 -114 -41 -207t-111.5 -151.5t-160.5 -90t-191 -31.5q-167 0 -276 79q-63 46 -63 111q0 54 39 90q33 29 76 29q35 0 95 -30q63 -31 129 -31z" />
    <glyph glyph-name="ij" unicode="&#x133;" horiz-adv-x="1102" 
d="M405 170q0 -82 -17 -116q-31 -62 -113 -62t-113 62q-17 34 -17 116v672q0 82 17 116q31 62 113 62t113 -62q17 -34 17 -116v-672zM125 1335q0 62 44 106t106 44t106 -44t44 -106t-44 -106t-106 -44t-106 44t-44 106zM675 1335q0 62 44 106t106 44t106 -44t44 -106
t-44 -106t-106 -44t-106 44t-44 106zM695 -78v920q0 82 17 116q31 62 113 62t113 -62q17 -34 17 -116v-934q0 -59 -17 -111t-52 -94.5t-94.5 -67.5t-137.5 -25h-14q-72 0 -107 18q-52 27 -52 93q0 67 52 93q26 13 78 16q84 5 84 92z" />
    <glyph glyph-name="Jcircumflex" unicode="&#x134;" horiz-adv-x="1035" 
d="M389 236q105 0 164.5 62t59.5 182v764q0 51 3.5 74t15.5 48q16 30 48.5 48t72.5 18t72.5 -18t48.5 -48q12 -25 15.5 -48t3.5 -74v-776q0 -114 -41 -207t-111.5 -151.5t-160.5 -90t-191 -31.5q-167 0 -276 79q-63 46 -63 111q0 54 39 90q33 29 76 29q35 0 95 -30
q63 -31 129 -31zM874 1586l-122 121l-122 -121q-42 -42 -73 -53q-52 -17 -97 28q-44 44 -28 97q11 31 53 73l154 154q18 18 30.5 28.5t35.5 21t47 10.5t47 -10.5t35.5 -21t30.5 -28.5l154 -154q42 -42 53 -73q16 -53 -28 -97q-45 -45 -97 -28q-31 11 -73 53z" />
    <glyph glyph-name="jcircumflex" unicode="&#x135;" horiz-adv-x="550" 
d="M145 -76v918q0 82 17 116q31 62 113 62t113 -62q17 -34 17 -116v-934q0 -58 -18 -110t-53.5 -94.5t-95 -68t-134.5 -25.5h-14q-72 0 -107 18q-52 27 -52 92q0 67 51 93q28 15 66 15h6q91 0 91 96zM397 1229l-122 121l-122 -121q-42 -42 -73 -53q-52 -17 -97 28
q-44 44 -28 97q11 31 53 73l154 154q18 18 30.5 28.5t35.5 21t47 10.5t47 -10.5t35.5 -21t30.5 -28.5l154 -154q42 -42 53 -73q16 -53 -28 -97q-45 -45 -97 -28q-31 11 -73 53z" />
    <glyph glyph-name="Kcommaaccent" unicode="&#x136;" horiz-adv-x="1287" 
d="M1220 130q2 -34 -16.5 -65.5t-52.5 -50.5q-38 -22 -74 -22q-35 0 -62.5 17.5t-41 36.5t-36.5 60l-310 542l-182 -220v-248q0 -51 -3.5 -74t-15.5 -48q-16 -30 -48.5 -48t-72.5 -18t-72.5 18t-48.5 48q-12 25 -15.5 48t-3.5 74v1064q0 51 3.5 74t15.5 48q16 30 48.5 48
t72.5 18t72.5 -18t48.5 -48q12 -25 15.5 -48t3.5 -74v-431l444 535q40 48 65.5 66t61.5 18q47 0 85 -32q50 -41 50 -99q0 -28 -13 -52.5t-49 -67.5l-266 -322l352 -617q43 -75 45 -112zM514 -503q-59 38 -54 96q2 31 39 90l85 136q33 53 55 69q25 18 57 18t61 -18
q59 -38 54 -96q-2 -31 -39 -90l-85 -136q-33 -53 -55 -69q-26 -18 -57 -18q-33 0 -61 18z" />
    <glyph glyph-name="kcommaaccent" unicode="&#x137;" horiz-adv-x="1053" 
d="M990 113q0 -61 -61 -99q-35 -22 -70 -22q-39 0 -65 22t-59 75l-210 333l-120 -138v-114q0 -82 -17 -116q-31 -62 -113 -62t-113 62q-17 34 -17 116v1084q0 82 17 116q31 62 113 62t113 -62q17 -34 17 -116v-640l316 361q37 42 61 58.5t55 16.5q46 0 81 -31q41 -35 41 -88
q0 -25 -13 -49.5t-47 -62.5l-193 -219l240 -379q44 -71 44 -108zM375 -503q-59 38 -54 96q2 31 39 90l85 136q33 53 55 69q26 18 57 18q33 0 61 -18q59 -38 54 -96q-2 -31 -39 -90l-85 -136q-33 -53 -55 -69q-25 -18 -57 -18t-61 18z" />
    <glyph glyph-name="kgreenlandic" unicode="&#x138;" horiz-adv-x="1053" 
d="M990 113q0 -61 -61 -99q-35 -22 -70 -22q-39 0 -65 22t-59 75l-209 332l-121 -139v-112q0 -82 -17 -116q-31 -62 -113 -62t-113 62q-17 34 -17 116v702q0 82 17 116q31 62 113 62t113 -62q17 -34 17 -116v-258l316 361q37 42 61 58.5t55 16.5q46 0 81 -31q41 -35 41 -88
q0 -25 -13 -49.5t-47 -62.5l-191 -218l238 -380q44 -71 44 -108z" />
    <glyph glyph-name="Lacute" unicode="&#x139;" horiz-adv-x="1148" 
d="M335 0q-28 0 -45 1.5t-42.5 10.5t-43.5 27t-27 43.5t-10.5 42.5t-1.5 45v1074q0 51 3.5 74t15.5 48q16 30 48.5 48t72.5 18t72.5 -18t48.5 -48q12 -25 15.5 -48t3.5 -74v-996h485q78 0 109 -16q27 -14 43 -43t16 -65t-16 -65t-43 -43q-31 -16 -109 -16h-595zM275 1554
q-59 38 -54 96q2 31 39 90l85 136q33 53 55 69q25 18 57 18t61 -18q59 -38 54 -96q-2 -31 -39 -90l-85 -136q-33 -53 -55 -69q-26 -18 -57 -18q-32 0 -61 18z" />
    <glyph glyph-name="lacute" unicode="&#x13a;" horiz-adv-x="637" 
d="M397 1254v-942q0 -87 84 -92q52 -3 78 -16q52 -26 52 -93q0 -66 -52 -93q-35 -18 -107 -18h-14q-78 0 -137.5 25t-94.5 67.5t-52 94.5t-17 111v956q0 82 17 116q31 62 113 62t113 -62q17 -34 17 -116zM232 1539q-59 38 -54 96q2 31 39 90l85 136q33 53 55 69q25 18 57 18
q33 0 61 -18q59 -38 54 -96q-2 -31 -39 -90l-85 -136q-33 -53 -55 -69q-26 -18 -57 -18q-33 0 -61 18z" />
    <glyph glyph-name="Lcommaaccent" unicode="&#x13b;" horiz-adv-x="1148" 
d="M335 0q-28 0 -45 1.5t-42.5 10.5t-43.5 27t-27 43.5t-10.5 42.5t-1.5 45v1074q0 51 3.5 74t15.5 48q16 30 48.5 48t72.5 18t72.5 -18t48.5 -48q12 -25 15.5 -48t3.5 -74v-996h485q78 0 109 -16q27 -14 43 -43t16 -65t-16 -65t-43 -43q-31 -16 -109 -16h-595zM438 -503
q-59 38 -54 96q2 31 39 90l85 136q33 53 55 69q25 18 57 18t61 -18q59 -38 54 -96q-2 -31 -39 -90l-85 -136q-33 -53 -55 -69q-26 -18 -57 -18q-33 0 -61 18z" />
    <glyph glyph-name="lcommaaccent" unicode="&#x13c;" horiz-adv-x="637" 
d="M397 1254v-942q0 -87 84 -92q52 -3 78 -16q52 -26 52 -93q0 -66 -52 -93q-35 -18 -107 -18h-14q-78 0 -137.5 25t-94.5 67.5t-52 94.5t-17 111v956q0 82 17 116q31 62 113 62t113 -62q17 -34 17 -116zM190 -503q-59 38 -54 96q2 31 39 90l85 136q33 53 55 69q26 18 57 18
q32 0 61 -18q59 -38 54 -96q-2 -31 -39 -90l-85 -136q-33 -53 -55 -69q-26 -18 -57 -18q-32 0 -61 18z" />
    <glyph glyph-name="Lcaron" unicode="&#x13d;" horiz-adv-x="1148" 
d="M335 0q-28 0 -45 1.5t-42.5 10.5t-43.5 27t-27 43.5t-10.5 42.5t-1.5 45v1074q0 51 3.5 74t15.5 48q16 30 48.5 48t72.5 18t72.5 -18t48.5 -48q12 -25 15.5 -48t3.5 -74v-996h485q78 0 109 -16q27 -14 43 -43t16 -65t-16 -65t-43 -43q-31 -16 -109 -16h-595zM653 1309
l51 154q20 63 44 87q27 27 68 27q39 0 70.5 -21.5t40.5 -55.5q10 -38 -14 -107l-51 -154q-20 -63 -44 -87q-27 -27 -68 -27q-39 0 -70.5 21.5t-40.5 55.5q-10 38 14 107z" />
    <glyph glyph-name="lcaron" unicode="&#x13e;" horiz-adv-x="637" 
d="M397 1254v-942q0 -87 84 -92q52 -3 78 -16q52 -26 52 -93q0 -66 -52 -93q-35 -18 -107 -18h-14q-78 0 -137.5 25t-94.5 67.5t-52 94.5t-17 111v956q0 82 17 116q31 62 113 62t113 -62q17 -34 17 -116zM521 1309l51 154q20 63 44 87q27 27 68 27q39 0 70.5 -21.5
t40.5 -55.5q10 -38 -14 -107l-51 -154q-20 -63 -44 -87q-27 -27 -68 -27q-39 0 -70.5 21.5t-40.5 55.5q-10 38 14 107z" />
    <glyph glyph-name="Ldot" unicode="&#x13f;" horiz-adv-x="1148" 
d="M335 0q-28 0 -45 1.5t-42.5 10.5t-43.5 27t-27 43.5t-10.5 42.5t-1.5 45v1074q0 51 3.5 74t15.5 48q16 30 48.5 48t72.5 18t72.5 -18t48.5 -48q12 -25 15.5 -48t3.5 -74v-996h485q78 0 109 -16q27 -14 43 -43t16 -65t-16 -65t-43 -43q-31 -16 -109 -16h-595zM879 577
q-56 0 -95.5 39.5t-39.5 94.5t39.5 94.5t95.5 39.5t95.5 -39.5t39.5 -94.5t-39.5 -94.5t-95.5 -39.5z" />
    <glyph glyph-name="ldot" unicode="&#x140;" horiz-adv-x="828" 
d="M552 571q0 55 39.5 94.5t94.5 39.5q56 0 95.5 -39.5t39.5 -94.5t-39.5 -94.5t-95.5 -39.5q-55 0 -94.5 39.5t-39.5 94.5zM397 1254v-942q0 -87 84 -92q52 -3 78 -16q52 -26 52 -93q0 -66 -52 -93q-35 -18 -107 -18h-14q-78 0 -137.5 25t-94.5 67.5t-52 94.5t-17 111v956
q0 82 17 116q31 62 113 62t113 -62q17 -34 17 -116z" />
    <glyph glyph-name="Lslash" unicode="&#x141;" horiz-adv-x="1197" 
d="M130 711l85 42v491q0 51 3.5 74t15.5 48q16 30 48.5 48t72.5 18t72.5 -18t48.5 -48q12 -25 15.5 -48t3.5 -74v-351l123 62q37 19 53.5 24.5t38.5 5.5q38 0 69 -31q33 -31 33 -83q0 -39 -22.5 -62.5t-73.5 -49.5l-221 -111v-400h485q78 0 109 -16q27 -14 43 -43t16 -65
t-16 -65t-43 -43q-31 -16 -109 -16h-595q-28 0 -45 1.5t-42.5 10.5t-43.5 27t-27 43.5t-10.5 42.5t-1.5 45v338q-47 -23 -79 -23q-38 0 -69 31q-33 31 -33 83q0 39 22.5 62.5t73.5 49.5z" />
    <glyph glyph-name="lslash" unicode="&#x142;" horiz-adv-x="713" 
d="M193 298v312q-40 -20 -70 -20q-56 0 -83 56q-12 24 -12 49q0 29 18 52q19 24 71 50l76 38v419q0 82 17 116q31 62 113 62t113 -62q17 -34 17 -116v-289l27 14q54 27 84 27q56 0 83 -56q12 -24 12 -49q0 -29 -18 -52q-19 -24 -71 -50l-117 -59v-428q0 -87 84 -92
q52 -3 78 -16q52 -26 52 -93q0 -66 -52 -93q-35 -18 -107 -18h-14q-78 0 -137.5 25t-94.5 67.5t-52 94.5t-17 111z" />
    <glyph glyph-name="Nacute" unicode="&#x143;" horiz-adv-x="1423" 
d="M1258 1244v-1078q0 -93 -38 -131q-43 -43 -105 -43q-46 0 -81 29t-82 99l-507 748v-688q0 -51 -3.5 -74t-15.5 -48q-16 -30 -48.5 -48t-72.5 -18t-72.5 18t-48.5 48q-12 25 -15.5 48t-3.5 74v1078q0 92 38 131q43 43 105 43q46 0 81 -29t83 -99l506 -748v688q0 51 3.5 74
t15.5 48q16 30 48.5 48t72.5 18t72.5 -18t48.5 -48q12 -25 15.5 -48t3.5 -74zM676 1554q-59 38 -54 96q2 31 39 90l85 136q33 53 55 69q26 18 57 18q32 0 61 -18q59 -38 54 -96q-2 -31 -39 -90l-85 -136q-33 -53 -55 -69q-26 -18 -57 -18q-33 0 -61 18z" />
    <glyph glyph-name="nacute" unicode="&#x144;" horiz-adv-x="1146" 
d="M398 944q48 53 117.5 81.5t143.5 28.5q154 0 246 -92q59 -59 82.5 -131t23.5 -165v-496q0 -82 -17 -116q-31 -62 -113 -62t-113 62q-17 34 -17 116v460q0 97 -50.5 142.5t-121.5 45.5t-122.5 -45.5t-51.5 -142.5v-460q0 -82 -17 -116q-31 -62 -113 -62t-113 62
q-17 34 -17 116v703q0 51 3.5 73t15.5 44q14 27 44.5 43.5t67.5 16.5q51 0 83 -30q27 -25 39 -76zM547 1198q-59 38 -54 96q2 31 39 90l85 136q33 53 55 69q26 18 57 18q33 0 61 -18q59 -38 54 -96q-2 -31 -39 -90l-85 -136q-33 -53 -55 -69q-26 -18 -57 -18q-32 0 -61 18z
" />
    <glyph glyph-name="Ncommaaccent" unicode="&#x145;" horiz-adv-x="1423" 
d="M1258 1244v-1078q0 -93 -38 -131q-43 -43 -105 -43q-46 0 -81 29t-82 99l-507 748v-688q0 -51 -3.5 -74t-15.5 -48q-16 -30 -48.5 -48t-72.5 -18t-72.5 18t-48.5 48q-12 25 -15.5 48t-3.5 74v1078q0 92 38 131q43 43 105 43q46 0 81 -29t83 -99l506 -748v688q0 51 3.5 74
t15.5 48q16 30 48.5 48t72.5 18t72.5 -18t48.5 -48q12 -25 15.5 -48t3.5 -74zM549 -503q-59 38 -54 96q2 31 39 90l85 136q33 53 55 69q26 18 57 18q33 0 61 -18q59 -38 54 -96q-2 -31 -39 -90l-85 -136q-33 -53 -55 -69q-25 -18 -57 -18t-61 18z" />
    <glyph glyph-name="ncommaaccent" unicode="&#x146;" horiz-adv-x="1146" 
d="M398 944q48 53 117.5 81.5t143.5 28.5q154 0 246 -92q59 -59 82.5 -131t23.5 -165v-496q0 -82 -17 -116q-31 -62 -113 -62t-113 62q-17 34 -17 116v460q0 97 -50.5 142.5t-121.5 45.5t-122.5 -45.5t-51.5 -142.5v-460q0 -82 -17 -116q-31 -62 -113 -62t-113 62
q-17 34 -17 116v703q0 51 3.5 73t15.5 44q14 27 44.5 43.5t67.5 16.5q51 0 83 -30q27 -25 39 -76zM396 -503q-59 38 -54 96q2 31 39 90l85 136q33 53 55 69q25 18 57 18t61 -18q59 -38 54 -96q-2 -31 -39 -90l-85 -136q-33 -53 -55 -69q-26 -18 -57 -18q-33 0 -61 18z" />
    <glyph glyph-name="Ncaron" unicode="&#x147;" horiz-adv-x="1423" 
d="M1258 1244v-1078q0 -93 -38 -131q-43 -43 -105 -43q-46 0 -81 29t-82 99l-507 748v-688q0 -51 -3.5 -74t-15.5 -48q-16 -30 -48.5 -48t-72.5 -18t-72.5 18t-48.5 48q-12 25 -15.5 48t-3.5 74v1078q0 92 38 131q43 43 105 43q46 0 81 -29t83 -99l506 -748v688q0 51 3.5 74
t15.5 48q16 30 48.5 48t72.5 18t72.5 -18t48.5 -48q12 -25 15.5 -48t3.5 -74zM711 1522q-24 0 -47 10.5t-35.5 21t-30.5 28.5l-154 154q-42 42 -53 73q-16 53 28 97q43 44 96 28q30 -9 74 -53l122 -121l122 121q44 44 74 53q53 16 96 -28q44 -44 28 -97q-11 -31 -53 -73
l-154 -154q-18 -18 -30.5 -28.5t-35.5 -21t-47 -10.5z" />
    <glyph glyph-name="ncaron" unicode="&#x148;" horiz-adv-x="1146" 
d="M398 944q48 53 117.5 81.5t143.5 28.5q154 0 246 -92q59 -59 82.5 -131t23.5 -165v-496q0 -82 -17 -116q-31 -62 -113 -62t-113 62q-17 34 -17 116v460q0 97 -50.5 142.5t-121.5 45.5t-122.5 -45.5t-51.5 -142.5v-460q0 -82 -17 -116q-31 -62 -113 -62t-113 62
q-17 34 -17 116v703q0 51 3.5 73t15.5 44q14 27 44.5 43.5t67.5 16.5q51 0 83 -30q27 -25 39 -76zM581 1166q-24 0 -47 10.5t-35.5 21t-30.5 28.5l-154 154q-42 42 -53 73q-16 53 28 97q43 44 96 28q30 -9 74 -53l122 -121l122 121q44 44 74 53q53 16 96 -28q44 -44 28 -97
q-11 -31 -53 -73l-154 -154q-18 -18 -30.5 -28.5t-35.5 -21t-47 -10.5z" />
    <glyph glyph-name="napostrophe" unicode="&#x149;" horiz-adv-x="1587" 
d="M839 944q48 53 117.5 81.5t143.5 28.5q154 0 246 -92q59 -59 82.5 -131t23.5 -165v-496q0 -82 -17 -116q-31 -62 -113 -62t-113 62q-17 34 -17 116v460q0 97 -50.5 142.5t-121.5 45.5t-122.5 -45.5t-51.5 -142.5v-460q0 -82 -17 -116q-31 -62 -113 -62t-113 62
q-17 34 -17 116v703q0 51 3.5 73t15.5 44q14 27 44.5 43.5t67.5 16.5q51 0 83 -30q27 -25 39 -76zM460 1333q6 -39 -19 -114l-69 -207q-24 -74 -53 -102q-32 -32 -82 -32q-43 0 -84.5 27t-48.5 76q-6 39 19 114l69 207q24 74 53 102q32 32 82 32q43 0 84.5 -27t48.5 -76z
" />
    <glyph glyph-name="Eng" unicode="&#x14a;" horiz-adv-x="1423" 
d="M1258 1244v-1336q0 -59 -17 -111t-52 -94.5t-94.5 -67.5t-137.5 -25h-17q-72 0 -107 18q-52 27 -52 93q0 67 52 93q26 13 78 16q84 5 84 92v133l-550 813v-688q0 -51 -3.5 -74t-15.5 -48q-16 -30 -48.5 -48t-72.5 -18t-72.5 18t-48.5 48q-12 25 -15.5 48t-3.5 74v1079
q0 92 38 130q43 43 105 43q47 0 82 -29t82 -99l506 -746v686q0 51 3.5 74t15.5 48q16 30 48.5 48t72.5 18t72.5 -18t48.5 -48q12 -25 15.5 -48t3.5 -74z" />
    <glyph glyph-name="eng" unicode="&#x14b;" horiz-adv-x="1146" 
d="M751 -78v708q0 97 -50.5 142.5t-121.5 45.5t-122.5 -45.5t-51.5 -142.5v-460q0 -82 -17 -116q-31 -62 -113 -62t-113 62q-17 34 -17 116v703q0 51 3.5 73t15.5 44q14 27 44.5 43.5t67.5 16.5q51 0 83 -30q27 -25 39 -76q48 53 117.5 81.5t143.5 28.5q154 0 246 -92
q59 -59 82.5 -131t23.5 -165v-758q0 -59 -17 -111t-52 -94.5t-94.5 -67.5t-137.5 -25h-14q-72 0 -107 18q-52 27 -52 93q0 67 52 93q26 13 78 16q84 5 84 92z" />
    <glyph glyph-name="Omacron" unicode="&#x14c;" horiz-adv-x="1288" 
d="M644 -12q-234 0 -382 150q-42 42 -69.5 90t-43 92.5t-23 114.5t-9 124.5t-1.5 152.5t1.5 152.5t9 124.5t23 114.5t43 92.5t69.5 90q148 150 382 150t382 -150q42 -42 69.5 -90t43 -92.5t23 -114.5t9 -124.5t1.5 -152.5t-1.5 -152.5t-9 -124.5t-23 -114.5t-43 -92.5
t-69.5 -90q-148 -150 -382 -150zM644 1188q-113 0 -179 -76q-41 -46 -55 -123.5t-14 -276.5t14 -276t55 -123q68 -77 179 -77t179 77q41 46 55 123t14 276t-14 276.5t-55 123.5q-66 76 -179 76zM458 1807h370q61 0 88 -14q48 -25 48 -86t-48 -86q-27 -14 -88 -14h-370
q-61 0 -88 14q-48 25 -48 86t48 86q27 14 88 14z" />
    <glyph glyph-name="omacron" unicode="&#x14d;" horiz-adv-x="1088" 
d="M362 521q0 -95 12 -155.5t49 -96.5q45 -45 121 -45t121 45q37 36 49 96.5t12 155.5t-12 155.5t-49 96.5q-45 45 -121 45t-121 -45q-37 -36 -49 -96.5t-12 -155.5zM986 521q0 -149 -25.5 -241t-93.5 -164q-122 -128 -323 -128t-323 128q-68 72 -93.5 164t-25.5 241
t25.5 241t93.5 164q122 128 323 128t323 -128q68 -72 93.5 -164t25.5 -241zM359 1450h370q61 0 88 -14q48 -25 48 -86t-48 -86q-27 -14 -88 -14h-370q-61 0 -88 14q-48 25 -48 86t48 86q27 14 88 14z" />
    <glyph glyph-name="Obreve" unicode="&#x14e;" horiz-adv-x="1288" 
d="M644 -12q-234 0 -382 150q-42 42 -69.5 90t-43 92.5t-23 114.5t-9 124.5t-1.5 152.5t1.5 152.5t9 124.5t23 114.5t43 92.5t69.5 90q148 150 382 150t382 -150q42 -42 69.5 -90t43 -92.5t23 -114.5t9 -124.5t1.5 -152.5t-1.5 -152.5t-9 -124.5t-23 -114.5t-43 -92.5
t-69.5 -90q-148 -150 -382 -150zM644 1188q-113 0 -179 -76q-41 -46 -55 -123.5t-14 -276.5t14 -276t55 -123q68 -77 179 -77t179 77q41 46 55 123t14 276t-14 276.5t-55 123.5q-66 76 -179 76zM643 1552q-79 0 -139 23t-119 74q-54 46 -56 94q0 35 25 66q30 34 71 34
q29 0 62 -27q78 -64 156 -64t156 64q33 27 62 27q41 0 71 -34q25 -31 25 -66q-2 -48 -56 -94q-59 -51 -119 -74t-139 -23z" />
    <glyph glyph-name="obreve" unicode="&#x14f;" horiz-adv-x="1088" 
d="M362 521q0 -95 12 -155.5t49 -96.5q45 -45 121 -45t121 45q37 36 49 96.5t12 155.5t-12 155.5t-49 96.5q-45 45 -121 45t-121 -45q-37 -36 -49 -96.5t-12 -155.5zM986 521q0 -149 -25.5 -241t-93.5 -164q-122 -128 -323 -128t-323 128q-68 72 -93.5 164t-25.5 241
t25.5 241t93.5 164q122 128 323 128t323 -128q68 -72 93.5 -164t25.5 -241zM544 1196q-79 0 -139 23t-119 74q-54 46 -56 94q0 35 25 66q30 34 71 34q29 0 62 -27q78 -64 156 -64t156 64q33 27 62 27q41 0 71 -34q25 -31 25 -66q-2 -48 -56 -94q-59 -51 -119 -74t-139 -23z
" />
    <glyph glyph-name="Ohungarumlaut" unicode="&#x150;" horiz-adv-x="1288" 
d="M644 -12q-234 0 -382 150q-42 42 -69.5 90t-43 92.5t-23 114.5t-9 124.5t-1.5 152.5t1.5 152.5t9 124.5t23 114.5t43 92.5t69.5 90q148 150 382 150t382 -150q42 -42 69.5 -90t43 -92.5t23 -114.5t9 -124.5t1.5 -152.5t-1.5 -152.5t-9 -124.5t-23 -114.5t-43 -92.5
t-69.5 -90q-148 -150 -382 -150zM644 1188q-113 0 -179 -76q-41 -46 -55 -123.5t-14 -276.5t14 -276t55 -123q68 -77 179 -77t179 77q41 46 55 123t14 276t-14 276.5t-55 123.5q-66 76 -179 76zM396 1554q-59 38 -54 96q2 31 39 90l85 136q33 53 55 69q25 18 57 18t61 -18
q59 -38 54 -96q-2 -31 -39 -90l-85 -136q-33 -53 -55 -69q-26 -18 -57 -18q-33 0 -61 18zM806 1554q-59 38 -54 96q2 31 39 90l85 136q33 53 55 69q26 18 57 18q32 0 61 -18q59 -38 54 -96q-2 -31 -39 -90l-85 -136q-33 -53 -55 -69q-26 -18 -57 -18q-33 0 -61 18z" />
    <glyph glyph-name="ohungarumlaut" unicode="&#x151;" horiz-adv-x="1088" 
d="M362 521q0 -95 12 -155.5t49 -96.5q45 -45 121 -45t121 45q37 36 49 96.5t12 155.5t-12 155.5t-49 96.5q-45 45 -121 45t-121 -45q-37 -36 -49 -96.5t-12 -155.5zM986 521q0 -149 -25.5 -241t-93.5 -164q-122 -128 -323 -128t-323 128q-68 72 -93.5 164t-25.5 241
t25.5 241t93.5 164q122 128 323 128t323 -128q68 -72 93.5 -164t25.5 -241zM297 1198q-59 38 -54 96q2 31 39 90l85 136q33 53 55 69q25 18 57 18q33 0 61 -18q59 -38 54 -96q-2 -31 -39 -90l-85 -136q-33 -53 -55 -69q-26 -18 -57 -18q-32 0 -61 18zM707 1198
q-59 38 -54 96q2 31 39 90l85 136q33 53 55 69q26 18 57 18q33 0 61 -18q59 -38 54 -96q-2 -31 -39 -90l-85 -136q-33 -53 -55 -69q-25 -18 -57 -18t-61 18z" />
    <glyph glyph-name="OE" unicode="&#x152;" horiz-adv-x="1931" 
d="M644 1188q-113 0 -179 -76q-41 -46 -55 -123.5t-14 -276.5t14 -276t55 -123q68 -77 179 -77t179 77q41 46 55 123t14 276t-14 276.5t-55 123.5q-66 76 -179 76zM924 1340q11 27 29 45t43.5 27t42.5 10.5t45 1.5h585q78 0 109 -16q27 -14 43 -43t16 -65t-16 -65t-43 -43
q-31 -16 -109 -16h-500v-334h404q78 0 109 -16q27 -14 43 -43t16 -65t-16 -65t-43 -43q-31 -16 -109 -16h-404v-346h500q78 0 109 -16q27 -14 43 -43t16 -65t-16 -65t-43 -43q-31 -16 -109 -16h-585q-28 0 -45 1.5t-42.5 10.5t-43.5 27q-19 19 -29 44q-113 -95 -280 -95
q-234 0 -382 150q-42 42 -69.5 90t-43 92.5t-23 114.5t-9 124.5t-1.5 152.5t1.5 152.5t9 124.5t23 114.5t43 92.5t69.5 90q148 150 382 150q166 0 280 -96z" />
    <glyph glyph-name="oe" unicode="&#x153;" horiz-adv-x="1722" 
d="M362 521q0 -95 12 -155.5t49 -96.5q45 -45 121 -45t121 45q37 36 49 96.5t12 155.5t-12 155.5t-49 96.5q-45 45 -121 45t-121 -45q-37 -36 -49 -96.5t-12 -155.5zM1376 618q-3 68 -23 113q-22 49 -67 78t-108 29t-108 -29t-66 -78q-22 -48 -23 -113h395zM1179 1054
q204 0 324.5 -130.5t127.5 -334.5q2 -79 -35 -116q-15 -15 -36.5 -23t-36.5 -9t-41 -1h-501q0 -104 60 -168t170 -64q105 0 180 56q55 39 97 39q39 0 72 -32.5t33 -76.5q0 -66 -102 -134q-107 -72 -284 -72q-227 0 -348 133q-111 -133 -315 -133q-201 0 -323 128
q-68 72 -93.5 164t-25.5 241t25.5 241t93.5 164q122 128 323 128q208 0 321 -137q117 137 314 137z" />
    <glyph glyph-name="Racute" unicode="&#x154;" horiz-adv-x="1308" 
d="M445 567v-387q0 -51 -3.5 -74t-15.5 -48q-16 -30 -48.5 -48t-72.5 -18t-72.5 18t-48.5 48q-12 25 -15.5 48t-3.5 74v1074q0 28 1.5 45t10.5 42.5t27 43.5t43.5 27t42.5 10.5t45 1.5h389q106 0 194.5 -34.5t146.5 -94t90 -138.5t32 -168q0 -128 -68 -227.5t-190 -148.5
l213 -371q43 -75 45 -112q2 -34 -16.5 -65.5t-52.5 -50.5q-38 -22 -74 -22q-35 0 -62.5 17.5t-41 36.5t-36.5 60l-264 461h-195zM445 801h264q91 0 145.5 51.5t54.5 135.5t-54.5 136t-145.5 52h-264v-375zM617 1554q-59 38 -54 96q2 31 39 90l85 136q33 53 55 69
q25 18 57 18q33 0 61 -18q59 -38 54 -96q-2 -31 -39 -90l-85 -136q-33 -53 -55 -69q-26 -18 -57 -18q-32 0 -61 18z" />
    <glyph glyph-name="racute" unicode="&#x155;" horiz-adv-x="913" 
d="M398 941q40 48 107 80.5t141 32.5q107 0 180 -48q66 -44 66 -109q0 -56 -39 -95q-36 -36 -87 -36q-36 0 -89 27q-52 27 -99 27q-71 0 -122 -49.5t-51 -142.5v-458q0 -82 -17 -116q-31 -62 -113 -62t-113 62q-17 34 -17 116v703q0 51 3.5 73t15.5 44q14 27 44.5 43.5
t67.5 16.5q51 0 83 -30q31 -28 39 -79zM421 1198q-59 38 -54 96q2 31 39 90l85 136q33 53 55 69q25 18 57 18q33 0 61 -18q59 -38 54 -96q-2 -31 -39 -90l-85 -136q-33 -53 -55 -69q-25 -18 -57 -18q-33 0 -61 18z" />
    <glyph glyph-name="Rcommaaccent" unicode="&#x156;" horiz-adv-x="1308" 
d="M445 567v-387q0 -51 -3.5 -74t-15.5 -48q-16 -30 -48.5 -48t-72.5 -18t-72.5 18t-48.5 48q-12 25 -15.5 48t-3.5 74v1074q0 28 1.5 45t10.5 42.5t27 43.5t43.5 27t42.5 10.5t45 1.5h389q106 0 194.5 -34.5t146.5 -94t90 -138.5t32 -168q0 -128 -68 -227.5t-190 -148.5
l213 -371q43 -75 45 -112q2 -34 -16.5 -65.5t-52.5 -50.5q-38 -22 -74 -22q-35 0 -62.5 17.5t-41 36.5t-36.5 60l-264 461h-195zM445 801h264q91 0 145.5 51.5t54.5 135.5t-54.5 136t-145.5 52h-264v-375zM497 -503q-59 38 -54 96q2 31 39 90l85 136q33 53 55 69
q26 18 57 18q33 0 61 -18q59 -38 54 -96q-2 -31 -39 -90l-85 -136q-33 -53 -55 -69q-25 -18 -57 -18t-61 18z" />
    <glyph glyph-name="rcommaaccent" unicode="&#x157;" horiz-adv-x="913" 
d="M398 941q40 48 107 80.5t141 32.5q107 0 180 -48q66 -44 66 -109q0 -56 -39 -95q-36 -36 -87 -36q-36 0 -89 27q-52 27 -99 27q-71 0 -122 -49.5t-51 -142.5v-458q0 -82 -17 -116q-31 -62 -113 -62t-113 62q-17 34 -17 116v703q0 51 3.5 73t15.5 44q14 27 44.5 43.5
t67.5 16.5q51 0 83 -30q31 -28 39 -79zM77 -503q-59 38 -54 96q2 31 39 90l85 136q33 53 55 69q26 18 57 18q33 0 61 -18q59 -38 54 -96q-2 -31 -39 -90l-85 -136q-33 -53 -55 -69q-25 -18 -57 -18t-61 18z" />
    <glyph glyph-name="Rcaron" unicode="&#x158;" horiz-adv-x="1308" 
d="M445 567v-387q0 -51 -3.5 -74t-15.5 -48q-16 -30 -48.5 -48t-72.5 -18t-72.5 18t-48.5 48q-12 25 -15.5 48t-3.5 74v1074q0 28 1.5 45t10.5 42.5t27 43.5t43.5 27t42.5 10.5t45 1.5h389q106 0 194.5 -34.5t146.5 -94t90 -138.5t32 -168q0 -128 -68 -227.5t-190 -148.5
l213 -371q43 -75 45 -112q2 -34 -16.5 -65.5t-52.5 -50.5q-38 -22 -74 -22q-35 0 -62.5 17.5t-41 36.5t-36.5 60l-264 461h-195zM445 801h264q91 0 145.5 51.5t54.5 135.5t-54.5 136t-145.5 52h-264v-375zM652 1522q-24 0 -47 10.5t-35.5 21t-30.5 28.5l-154 154
q-42 42 -53 73q-16 53 28 97q43 44 96 28q30 -9 74 -53l122 -121l122 121q44 44 74 53q53 16 96 -28q44 -44 28 -97q-11 -31 -53 -73l-154 -154q-18 -18 -30.5 -28.5t-35.5 -21t-47 -10.5z" />
    <glyph glyph-name="rcaron" unicode="&#x159;" horiz-adv-x="913" 
d="M398 941q40 48 107 80.5t141 32.5q107 0 180 -48q66 -44 66 -109q0 -56 -39 -95q-36 -36 -87 -36q-36 0 -89 27q-52 27 -99 27q-71 0 -122 -49.5t-51 -142.5v-458q0 -82 -17 -116q-31 -62 -113 -62t-113 62q-17 34 -17 116v703q0 51 3.5 73t15.5 44q14 27 44.5 43.5
t67.5 16.5q51 0 83 -30q31 -28 39 -79zM455 1166q-24 0 -47 10.5t-35.5 21t-30.5 28.5l-154 154q-42 42 -53 73q-16 53 28 97q43 44 96 28q30 -9 74 -53l122 -121l122 121q44 44 74 53q53 16 96 -28q44 -44 28 -97q-11 -31 -53 -73l-154 -154q-18 -18 -30.5 -28.5t-35.5 -21
t-47 -10.5z" />
    <glyph glyph-name="Sacute" unicode="&#x15a;" horiz-adv-x="1185" 
d="M646 581l-170 25q-181 27 -276 119q-102 99 -102 279q0 193 134 312.5t362 119.5q173 0 322 -69q114 -53 114 -139q0 -46 -32 -86q-33 -38 -83 -38q-42 0 -104 32q-106 56 -225 56q-105 0 -162 -49.5t-57 -122.5q0 -71 41 -109q47 -42 132 -55l167 -24q185 -27 273 -111
q110 -103 110 -301q0 -134 -70.5 -233t-189 -149t-269.5 -50q-114 0 -192 16.5t-162 56.5q-74 35 -108 70.5t-34 92.5q0 53 38 91q31 31 78 31q41 0 113 -38q78 -41 135.5 -57.5t134.5 -16.5q122 0 187.5 47t65.5 132q0 77 -43 119q-37 35 -128 49zM560 1554q-59 38 -54 96
q2 31 39 90l85 136q33 53 55 69q25 18 57 18t61 -18q59 -38 54 -96q-2 -31 -39 -90l-85 -136q-33 -53 -55 -69q-26 -18 -57 -18q-33 0 -61 18z" />
    <glyph glyph-name="sacute" unicode="&#x15b;" horiz-adv-x="1001" 
d="M498 1054q148 0 269 -50q56 -22 83 -51q27 -30 27 -73q0 -46 -34 -80q-31 -31 -73 -31q-29 0 -76 22q-113 52 -202 52q-72 0 -109.5 -29.5t-37.5 -73.5t27 -65t81 -26l163 -16q153 -14 232 -92.5t79 -212.5q0 -165 -123.5 -252.5t-317.5 -87.5q-121 0 -205.5 22.5
t-155.5 70.5q-63 42 -63 100q0 55 42 89q32 26 69 26q35 0 86 -30q103 -61 231 -61q78 0 131 28.5t53 83.5q0 86 -110 97l-164 15q-306 29 -306 294q0 79 33 142.5t89.5 104t128.5 62.5t153 22zM479 1198q-59 38 -54 96q2 31 39 90l85 136q33 53 55 69q26 18 57 18
q33 0 61 -18q59 -38 54 -96q-2 -31 -39 -90l-85 -136q-33 -53 -55 -69q-26 -18 -57 -18q-32 0 -61 18z" />
    <glyph glyph-name="Scircumflex" unicode="&#x15c;" horiz-adv-x="1185" 
d="M646 581l-170 25q-181 27 -276 119q-102 99 -102 279q0 193 134 312.5t362 119.5q173 0 322 -69q114 -53 114 -139q0 -46 -32 -86q-33 -38 -83 -38q-42 0 -104 32q-106 56 -225 56q-105 0 -162 -49.5t-57 -122.5q0 -71 41 -109q47 -42 132 -55l167 -24q185 -27 273 -111
q110 -103 110 -301q0 -134 -70.5 -233t-189 -149t-269.5 -50q-114 0 -192 16.5t-162 56.5q-74 35 -108 70.5t-34 92.5q0 53 38 91q31 31 78 31q41 0 113 -38q78 -41 135.5 -57.5t134.5 -16.5q122 0 187.5 47t65.5 132q0 77 -43 119q-37 35 -128 49zM717 1586l-122 121
l-122 -121q-42 -42 -73 -53q-52 -17 -97 28q-44 44 -28 97q11 31 53 73l154 154q18 18 30.5 28.5t35.5 21t47 10.5t47 -10.5t35.5 -21t30.5 -28.5l154 -154q42 -42 53 -73q16 -53 -28 -97q-45 -45 -97 -28q-31 11 -73 53z" />
    <glyph glyph-name="scircumflex" unicode="&#x15d;" horiz-adv-x="1001" 
d="M498 1054q148 0 269 -50q56 -22 83 -51q27 -30 27 -73q0 -46 -34 -80q-31 -31 -73 -31q-29 0 -76 22q-113 52 -202 52q-72 0 -109.5 -29.5t-37.5 -73.5t27 -65t81 -26l163 -16q153 -14 232 -92.5t79 -212.5q0 -165 -123.5 -252.5t-317.5 -87.5q-121 0 -205.5 22.5
t-155.5 70.5q-63 42 -63 100q0 55 42 89q32 26 69 26q35 0 86 -30q103 -61 231 -61q78 0 131 28.5t53 83.5q0 86 -110 97l-164 15q-306 29 -306 294q0 79 33 142.5t89.5 104t128.5 62.5t153 22zM635 1229l-122 121l-122 -121q-42 -42 -73 -53q-52 -17 -97 28q-44 44 -28 97
q11 31 53 73l154 154q18 18 30.5 28.5t35.5 21t47 10.5t47 -10.5t35.5 -21t30.5 -28.5l154 -154q42 -42 53 -73q16 -53 -28 -97q-45 -45 -97 -28q-31 11 -73 53z" />
    <glyph glyph-name="Scedilla" unicode="&#x15e;" horiz-adv-x="1185" 
d="M646 581l-170 25q-181 27 -276 119q-102 99 -102 279q0 193 134 312.5t362 119.5q173 0 322 -69q114 -53 114 -139q0 -46 -32 -86q-33 -38 -83 -38q-42 0 -104 32q-106 56 -225 56q-105 0 -162 -49.5t-57 -122.5q0 -71 41 -109q47 -42 132 -55l167 -24q185 -27 273 -111
q110 -103 110 -301q0 -134 -70.5 -233t-189 -149t-269.5 -50q-114 0 -192 16.5t-162 56.5q-74 35 -108 70.5t-34 92.5q0 53 38 91q31 31 78 31q41 0 113 -38q78 -41 135.5 -57.5t134.5 -16.5q122 0 187.5 47t65.5 132q0 77 -43 119q-37 35 -128 49zM379 -503q-59 38 -54 96
q2 31 39 90l85 136q33 53 55 69q26 18 57 18q33 0 61 -18q59 -38 54 -96q-2 -31 -39 -90l-85 -136q-33 -53 -55 -69q-25 -18 -57 -18t-61 18z" />
    <glyph glyph-name="scedilla" unicode="&#x15f;" horiz-adv-x="1001" 
d="M498 1054q148 0 269 -50q56 -22 83 -51q27 -30 27 -73q0 -46 -34 -80q-31 -31 -73 -31q-29 0 -76 22q-113 52 -202 52q-72 0 -109.5 -29.5t-37.5 -73.5t27 -65t81 -26l163 -16q153 -14 232 -92.5t79 -212.5q0 -165 -123.5 -252.5t-317.5 -87.5q-121 0 -205.5 22.5
t-155.5 70.5q-63 42 -63 100q0 55 42 89q32 26 69 26q35 0 86 -30q103 -61 231 -61q78 0 131 28.5t53 83.5q0 86 -110 97l-164 15q-306 29 -306 294q0 79 33 142.5t89.5 104t128.5 62.5t153 22zM316 -503q-59 38 -54 96q2 31 39 90l85 136q33 53 55 69q25 18 57 18t61 -18
q59 -38 54 -96q-2 -31 -39 -90l-85 -136q-33 -53 -55 -69q-26 -18 -57 -18q-33 0 -61 18z" />
    <glyph glyph-name="Scaron" unicode="&#x160;" horiz-adv-x="1185" 
d="M646 581l-170 25q-181 27 -276 119q-102 99 -102 279q0 193 134 312.5t362 119.5q173 0 322 -69q114 -53 114 -139q0 -46 -32 -86q-33 -38 -83 -38q-42 0 -104 32q-106 56 -225 56q-105 0 -162 -49.5t-57 -122.5q0 -71 41 -109q47 -42 132 -55l167 -24q185 -27 273 -111
q110 -103 110 -301q0 -134 -70.5 -233t-189 -149t-269.5 -50q-114 0 -192 16.5t-162 56.5q-74 35 -108 70.5t-34 92.5q0 53 38 91q31 31 78 31q41 0 113 -38q78 -41 135.5 -57.5t134.5 -16.5q122 0 187.5 47t65.5 132q0 77 -43 119q-37 35 -128 49zM595 1522q-24 0 -47 10.5
t-35.5 21t-30.5 28.5l-154 154q-42 42 -53 73q-16 53 28 97q43 44 96 28q30 -9 74 -53l122 -121l122 121q44 44 74 53q53 16 96 -28q44 -44 28 -97q-11 -31 -53 -73l-154 -154q-18 -18 -30.5 -28.5t-35.5 -21t-47 -10.5z" />
    <glyph glyph-name="scaron" unicode="&#x161;" horiz-adv-x="1001" 
d="M498 1054q148 0 269 -50q56 -22 83 -51q27 -30 27 -73q0 -46 -34 -80q-31 -31 -73 -31q-29 0 -76 22q-113 52 -202 52q-72 0 -109.5 -29.5t-37.5 -73.5t27 -65t81 -26l163 -16q153 -14 232 -92.5t79 -212.5q0 -165 -123.5 -252.5t-317.5 -87.5q-121 0 -205.5 22.5
t-155.5 70.5q-63 42 -63 100q0 55 42 89q32 26 69 26q35 0 86 -30q103 -61 231 -61q78 0 131 28.5t53 83.5q0 86 -110 97l-164 15q-306 29 -306 294q0 79 33 142.5t89.5 104t128.5 62.5t153 22zM513 1166q-24 0 -47 10.5t-35.5 21t-30.5 28.5l-154 154q-42 42 -53 73
q-16 53 28 97q43 44 96 28q30 -9 74 -53l122 -121l122 121q44 44 74 53q53 16 96 -28q44 -44 28 -97q-11 -31 -53 -73l-154 -154q-18 -18 -30.5 -28.5t-35.5 -21t-47 -10.5z" />
    <glyph glyph-name="Tcommaaccent" unicode="&#x162;" horiz-adv-x="1138" 
d="M920 1176h-211v-996q0 -51 -3.5 -74t-15.5 -48q-16 -30 -48.5 -48t-72.5 -18t-72.5 18t-48.5 48q-12 25 -15.5 48t-3.5 74v996h-211q-78 0 -109 16q-27 14 -43 43t-16 65t16 65t43 43q31 16 109 16h702q78 0 109 -16q27 -14 43 -43t16 -65t-16 -65t-43 -43
q-31 -16 -109 -16zM378 -503q-59 38 -54 96q2 31 39 90l85 136q33 53 55 69q25 18 57 18t61 -18q59 -38 54 -96q-2 -31 -39 -90l-85 -136q-33 -53 -55 -69q-25 -18 -57 -18q-33 0 -61 18z" />
    <glyph glyph-name="tcommaaccent" unicode="&#x163;" horiz-adv-x="732" 
d="M197 298v514h-26q-61 0 -88 14q-48 25 -48 86t48 86q27 14 88 14h26v139q0 82 17 116q31 62 113 62t113 -62q17 -34 17 -116v-139h78q61 0 88 -14q48 -25 48 -86t-48 -86q-27 -14 -88 -14h-78v-500q0 -87 84 -92q52 -3 78 -16q52 -26 52 -93q0 -66 -52 -93
q-35 -18 -107 -18h-14q-78 0 -137.5 25t-94.5 67.5t-52 94.5t-17 111zM208 -503q-59 38 -54 96q2 31 39 90l85 136q33 53 55 69q25 18 57 18t61 -18q59 -38 54 -96q-2 -31 -39 -90l-85 -136q-33 -53 -55 -69q-25 -18 -57 -18q-33 0 -61 18z" />
    <glyph glyph-name="Tcaron" unicode="&#x164;" horiz-adv-x="1138" 
d="M920 1176h-211v-996q0 -51 -3.5 -74t-15.5 -48q-16 -30 -48.5 -48t-72.5 -18t-72.5 18t-48.5 48q-12 25 -15.5 48t-3.5 74v996h-211q-78 0 -109 16q-27 14 -43 43t-16 65t16 65t43 43q31 16 109 16h702q78 0 109 -16q27 -14 43 -43t16 -65t-16 -65t-43 -43
q-31 -16 -109 -16zM569 1522q-24 0 -47 10.5t-35.5 21t-30.5 28.5l-154 154q-42 42 -53 73q-16 53 28 97q43 44 96 28q30 -9 74 -53l122 -121l122 121q44 44 74 53q53 16 96 -28q44 -44 28 -97q-11 -31 -53 -73l-154 -154q-18 -18 -30.5 -28.5t-35.5 -21t-47 -10.5z" />
    <glyph glyph-name="tcaron" unicode="&#x165;" horiz-adv-x="732" 
d="M197 298v514h-26q-61 0 -88 14q-48 25 -48 86t48 86q27 14 88 14h26v139q0 82 17 116q31 62 113 62t113 -62q17 -34 17 -116v-139h78q61 0 88 -14q48 -25 48 -86t-48 -86q-27 -14 -88 -14h-78v-500q0 -87 84 -92q52 -3 78 -16q52 -26 52 -93q0 -66 -52 -93
q-35 -18 -107 -18h-14q-78 0 -137.5 25t-94.5 67.5t-52 94.5t-17 111zM570 1309l51 154q20 63 44 87q27 27 68 27q39 0 70.5 -21.5t40.5 -55.5q10 -38 -14 -107l-51 -154q-20 -63 -44 -87q-27 -27 -68 -27q-39 0 -70.5 21.5t-40.5 55.5q-10 38 14 107z" />
    <glyph glyph-name="Tbar" unicode="&#x166;" horiz-adv-x="1138" 
d="M783 609h-74v-429q0 -51 -3.5 -74t-15.5 -48q-16 -30 -48.5 -48t-72.5 -18t-72.5 18t-48.5 48q-12 25 -15.5 48t-3.5 74v429h-74q-68 0 -97 15q-51 28 -51 94t51 94q29 15 97 15h74v349h-211q-78 0 -109 16q-27 14 -43 43t-16 65t16 65t43 43q31 16 109 16h702
q78 0 109 -16q27 -14 43 -43t16 -65t-16 -65t-43 -43q-31 -16 -109 -16h-211v-349h74q69 0 97 -15q51 -28 51 -94t-51 -94q-28 -15 -97 -15z" />
    <glyph glyph-name="tbar" unicode="&#x167;" horiz-adv-x="732" 
d="M513 458h-56v-146q0 -87 84 -92q52 -3 78 -16q52 -26 52 -93q0 -66 -52 -93q-35 -18 -107 -18h-14q-78 0 -137.5 25t-94.5 67.5t-52 94.5t-17 111v160h-26q-61 0 -88 14q-48 25 -48 86t48 86q27 14 88 14h26v154h-26q-61 0 -88 14q-48 25 -48 86t48 86q27 14 88 14h26
v139q0 82 17 116q31 62 113 62t113 -62q17 -34 17 -116v-139h78q61 0 88 -14q48 -25 48 -86t-48 -86q-27 -14 -88 -14h-78v-154h56q61 0 88 -14q48 -25 48 -86t-48 -86q-27 -14 -88 -14z" />
    <glyph glyph-name="Utilde" unicode="&#x168;" horiz-adv-x="1332" 
d="M666 -12q-223 0 -373.5 139t-150.5 361v756q0 51 3.5 74t15.5 48q16 30 48.5 48t72.5 18t72.5 -18t48.5 -48q12 -25 15.5 -48t3.5 -74v-746q0 -122 65.5 -192t178.5 -70t178.5 70t65.5 192v746q0 51 3.5 74t15.5 48q16 30 48.5 48t72.5 18t72.5 -18t48.5 -48
q12 -25 15.5 -48t3.5 -74v-756q0 -222 -150.5 -361t-373.5 -139zM645 1615q-60 34 -106 34t-87 -32q-36 -26 -65 -26q-43 0 -68 30q-21 25 -21 63q0 49 56 93q45 36 84.5 49t91.5 13q45 0 79 -9.5t80 -34.5q60 -34 106 -34t87 32q36 26 65 26q43 0 68 -30q21 -25 21 -63
q0 -49 -56 -93q-45 -36 -84.5 -49t-91.5 -13q-45 0 -79 9.5t-80 34.5z" />
    <glyph glyph-name="utilde" unicode="&#x169;" horiz-adv-x="1146" 
d="M749 98q-48 -53 -117.5 -81.5t-143.5 -28.5q-154 0 -246 92q-59 59 -82.5 131t-23.5 165v496q0 82 17 116q31 62 113 62t113 -62q17 -34 17 -116v-460q0 -97 50.5 -142.5t121.5 -45.5t122.5 45.5t51.5 142.5v460q0 82 17 116q31 62 113 62t113 -62q17 -34 17 -116v-703
q0 -51 -3.5 -73t-15.5 -44q-14 -27 -44.5 -43.5t-67.5 -16.5q-51 0 -83 30q-27 25 -39 76zM545 1264q-60 34 -106 34t-87 -32q-36 -26 -65 -26q-43 0 -68 30q-21 25 -21 63q0 49 56 93q45 36 84.5 49t91.5 13q45 0 79 -9.5t80 -34.5q60 -34 106 -34t87 32q36 26 65 26
q43 0 68 -30q21 -25 21 -63q0 -49 -56 -93q-45 -36 -84.5 -49t-91.5 -13q-45 0 -79 9.5t-80 34.5z" />
    <glyph glyph-name="Umacron" unicode="&#x16a;" horiz-adv-x="1332" 
d="M666 -12q-223 0 -373.5 139t-150.5 361v756q0 51 3.5 74t15.5 48q16 30 48.5 48t72.5 18t72.5 -18t48.5 -48q12 -25 15.5 -48t3.5 -74v-746q0 -122 65.5 -192t178.5 -70t178.5 70t65.5 192v746q0 51 3.5 74t15.5 48q16 30 48.5 48t72.5 18t72.5 -18t48.5 -48
q12 -25 15.5 -48t3.5 -74v-756q0 -222 -150.5 -361t-373.5 -139zM482 1807h370q61 0 88 -14q48 -25 48 -86t-48 -86q-27 -14 -88 -14h-370q-61 0 -88 14q-48 25 -48 86t48 86q27 14 88 14z" />
    <glyph glyph-name="umacron" unicode="&#x16b;" horiz-adv-x="1146" 
d="M749 98q-48 -53 -117.5 -81.5t-143.5 -28.5q-154 0 -246 92q-59 59 -82.5 131t-23.5 165v496q0 82 17 116q31 62 113 62t113 -62q17 -34 17 -116v-460q0 -97 50.5 -142.5t121.5 -45.5t122.5 45.5t51.5 142.5v460q0 82 17 116q31 62 113 62t113 -62q17 -34 17 -116v-703
q0 -51 -3.5 -73t-15.5 -44q-14 -27 -44.5 -43.5t-67.5 -16.5q-51 0 -83 30q-27 25 -39 76zM382 1450h370q61 0 88 -14q48 -25 48 -86t-48 -86q-27 -14 -88 -14h-370q-61 0 -88 14q-48 25 -48 86t48 86q27 14 88 14z" />
    <glyph glyph-name="Ubreve" unicode="&#x16c;" horiz-adv-x="1332" 
d="M666 -12q-223 0 -373.5 139t-150.5 361v756q0 51 3.5 74t15.5 48q16 30 48.5 48t72.5 18t72.5 -18t48.5 -48q12 -25 15.5 -48t3.5 -74v-746q0 -122 65.5 -192t178.5 -70t178.5 70t65.5 192v746q0 51 3.5 74t15.5 48q16 30 48.5 48t72.5 18t72.5 -18t48.5 -48
q12 -25 15.5 -48t3.5 -74v-756q0 -222 -150.5 -361t-373.5 -139zM667 1552q-79 0 -139 23t-119 74q-54 46 -56 94q0 35 25 66q30 34 71 34q29 0 62 -27q78 -64 156 -64t156 64q33 27 62 27q41 0 71 -34q25 -31 25 -66q-2 -48 -56 -94q-59 -51 -119 -74t-139 -23z" />
    <glyph glyph-name="ubreve" unicode="&#x16d;" horiz-adv-x="1146" 
d="M749 98q-48 -53 -117.5 -81.5t-143.5 -28.5q-154 0 -246 92q-59 59 -82.5 131t-23.5 165v496q0 82 17 116q31 62 113 62t113 -62q17 -34 17 -116v-460q0 -97 50.5 -142.5t121.5 -45.5t122.5 45.5t51.5 142.5v460q0 82 17 116q31 62 113 62t113 -62q17 -34 17 -116v-703
q0 -51 -3.5 -73t-15.5 -44q-14 -27 -44.5 -43.5t-67.5 -16.5q-51 0 -83 30q-27 25 -39 76zM519 1196q-79 0 -139 23t-119 74q-54 46 -56 94q0 35 25 66q30 34 71 34q29 0 62 -27q78 -64 156 -64t156 64q33 27 62 27q41 0 71 -34q25 -31 25 -66q-2 -48 -56 -94
q-59 -51 -119 -74t-139 -23z" />
    <glyph glyph-name="Uring" unicode="&#x16e;" horiz-adv-x="1332" 
d="M666 -12q-223 0 -373.5 139t-150.5 361v756q0 51 3.5 74t15.5 48q16 30 48.5 48t72.5 18t72.5 -18t48.5 -48q12 -25 15.5 -48t3.5 -74v-746q0 -122 65.5 -192t178.5 -70t178.5 70t65.5 192v746q0 51 3.5 74t15.5 48q16 30 48.5 48t72.5 18t72.5 -18t48.5 -48
q12 -25 15.5 -48t3.5 -74v-756q0 -222 -150.5 -361t-373.5 -139zM929 1768q0 -108 -77 -185t-185 -77t-185 77t-77 185t77 185t185 77t185 -76.5t77 -185.5zM783 1768q0 48 -34 82t-82 34t-82 -34t-34 -82t34 -83t82 -35t82 35t34 83z" />
    <glyph glyph-name="uring" unicode="&#x16f;" horiz-adv-x="1146" 
d="M749 98q-48 -53 -117.5 -81.5t-143.5 -28.5q-154 0 -246 92q-59 59 -82.5 131t-23.5 165v496q0 82 17 116q31 62 113 62t113 -62q17 -34 17 -116v-460q0 -97 50.5 -142.5t121.5 -45.5t122.5 45.5t51.5 142.5v460q0 82 17 116q31 62 113 62t113 -62q17 -34 17 -116v-703
q0 -51 -3.5 -73t-15.5 -44q-14 -27 -44.5 -43.5t-67.5 -16.5q-51 0 -83 30q-27 25 -39 76zM567 1168q-108 0 -185 77t-77 185t77 185t185 77t185 -77t77 -185t-77 -185t-185 -77zM567 1546q-48 0 -82 -34t-34 -82t34 -83t82 -35t82 35t34 83t-34 82t-82 34z" />
    <glyph glyph-name="Uhungarumlaut" unicode="&#x170;" horiz-adv-x="1332" 
d="M666 -12q-223 0 -373.5 139t-150.5 361v756q0 51 3.5 74t15.5 48q16 30 48.5 48t72.5 18t72.5 -18t48.5 -48q12 -25 15.5 -48t3.5 -74v-746q0 -122 65.5 -192t178.5 -70t178.5 70t65.5 192v746q0 51 3.5 74t15.5 48q16 30 48.5 48t72.5 18t72.5 -18t48.5 -48
q12 -25 15.5 -48t3.5 -74v-756q0 -222 -150.5 -361t-373.5 -139zM420 1554q-59 38 -54 96q2 31 39 90l85 136q33 53 55 69q26 18 57 18q32 0 61 -18q59 -38 54 -96q-2 -31 -39 -90l-85 -136q-33 -53 -55 -69q-26 -18 -57 -18q-33 0 -61 18zM830 1554q-59 38 -54 96
q2 31 39 90l85 136q33 53 55 69q25 18 57 18t61 -18q59 -38 54 -96q-2 -31 -39 -90l-85 -136q-33 -53 -55 -69q-25 -18 -57 -18q-33 0 -61 18z" />
    <glyph glyph-name="uhungarumlaut" unicode="&#x171;" horiz-adv-x="1146" 
d="M749 98q-48 -53 -117.5 -81.5t-143.5 -28.5q-154 0 -246 92q-59 59 -82.5 131t-23.5 165v496q0 82 17 116q31 62 113 62t113 -62q17 -34 17 -116v-460q0 -97 50.5 -142.5t121.5 -45.5t122.5 45.5t51.5 142.5v460q0 82 17 116q31 62 113 62t113 -62q17 -34 17 -116v-703
q0 -51 -3.5 -73t-15.5 -44q-14 -27 -44.5 -43.5t-67.5 -16.5q-51 0 -83 30q-27 25 -39 76zM320 1198q-59 38 -54 96q2 31 39 90l85 136q33 53 55 69q26 18 57 18q32 0 61 -18q59 -38 54 -96q-2 -31 -39 -90l-85 -136q-33 -53 -55 -69q-25 -18 -57 -18q-33 0 -61 18z
M730 1198q-59 38 -54 96q2 31 39 90l85 136q33 53 55 69q25 18 57 18t61 -18q59 -38 54 -96q-2 -31 -39 -90l-85 -136q-33 -53 -55 -69q-26 -18 -57 -18q-33 0 -61 18z" />
    <glyph glyph-name="Uogonek" unicode="&#x172;" horiz-adv-x="1332" 
d="M666 -12q-223 0 -373.5 139t-150.5 361v756q0 51 3.5 74t15.5 48q16 30 48.5 48t72.5 18t72.5 -18t48.5 -48q12 -25 15.5 -48t3.5 -74v-746q0 -122 65.5 -192t178.5 -70t178.5 70t65.5 192v746q0 51 3.5 74t15.5 48q16 30 48.5 48t72.5 18t72.5 -18t48.5 -48
q12 -25 15.5 -48t3.5 -74v-756q0 -222 -150.5 -361t-373.5 -139zM710 -503q-59 38 -54 96q2 31 39 90l85 136q33 53 55 69q26 18 57 18q32 0 61 -18q59 -38 54 -96q-2 -31 -39 -90l-85 -136q-33 -53 -55 -69q-26 -18 -57 -18q-33 0 -61 18z" />
    <glyph glyph-name="uogonek" unicode="&#x173;" horiz-adv-x="1146" 
d="M749 98q-48 -53 -117.5 -81.5t-143.5 -28.5q-154 0 -246 92q-59 59 -82.5 131t-23.5 165v496q0 82 17 116q31 62 113 62t113 -62q17 -34 17 -116v-460q0 -97 50.5 -142.5t121.5 -45.5t122.5 45.5t51.5 142.5v460q0 82 17 116q31 62 113 62t113 -62q17 -34 17 -116v-703
q0 -51 -3.5 -73t-15.5 -44q-14 -27 -44.5 -43.5t-67.5 -16.5q-51 0 -83 30q-27 25 -39 76zM655 -503q-59 38 -54 96q2 31 39 90l85 136q33 53 55 69q26 18 57 18q33 0 61 -18q59 -38 54 -96q-2 -31 -39 -90l-85 -136q-33 -53 -55 -69q-25 -18 -57 -18t-61 18z" />
    <glyph glyph-name="Wcircumflex" unicode="&#x174;" horiz-adv-x="1746" 
d="M873 884l-215 -740q-26 -89 -65 -120q-40 -32 -95 -32t-95 32q-44 34 -65 120l-270 1080q-12 48 -14 70t3 47q9 38 47 64.5t84 26.5q56 0 88 -37q16 -18 24 -38.5t20 -69.5l189 -760l228 788q17 55 45 84q33 32 91 32t91 -32q28 -29 45 -84l228 -788l189 760
q12 49 20 69.5t24 38.5q32 37 88 37q46 0 84 -26.5t47 -64.5q5 -25 3 -47t-14 -70l-270 -1080q-21 -86 -65 -120q-40 -32 -95 -32t-95 32q-39 31 -65 120zM995 1586l-122 121l-122 -121q-42 -42 -73 -53q-52 -17 -97 28q-44 44 -28 97q11 31 53 73l154 154q18 18 30.5 28.5
t35.5 21t47 10.5t47 -10.5t35.5 -21t30.5 -28.5l154 -154q42 -42 53 -73q16 -53 -28 -97q-45 -45 -97 -28q-31 11 -73 53z" />
    <glyph glyph-name="wcircumflex" unicode="&#x175;" horiz-adv-x="1490" 
d="M745 660l-167 -525q-25 -83 -58 -110q-41 -33 -94 -33t-94 33q-34 28 -58 110l-212 717q-22 72 -13 109q9 38 43.5 63.5t76.5 25.5q50 0 83 -33q15 -16 24 -35t21 -63l147 -519l162 517q25 78 55 104q32 29 84 29t84 -29q30 -26 55 -104l162 -517l147 519q12 44 21 63
t24 35q33 33 83 33q42 0 76.5 -25.5t43.5 -63.5q9 -37 -13 -109l-212 -717q-24 -82 -58 -110q-41 -33 -94 -33t-94 33q-33 27 -58 110zM867 1229l-122 121l-122 -121q-42 -42 -73 -53q-52 -17 -97 28q-44 44 -28 97q11 31 53 73l154 154q18 18 30.5 28.5t35.5 21t47 10.5
t47 -10.5t35.5 -21t30.5 -28.5l154 -154q42 -42 53 -73q16 -53 -28 -97q-45 -45 -97 -28q-31 11 -73 53z" />
    <glyph glyph-name="Ycircumflex" unicode="&#x176;" horiz-adv-x="1080" 
d="M540 -8q-40 0 -72.5 18t-48.5 48q-12 25 -15.5 48t-3.5 74v378l-322 642q-22 46 -29.5 66.5t-6.5 43.5q1 32 20 60.5t53 45.5q32 16 65 16q36 0 65 -21q19 -14 31.5 -32.5t34.5 -62.5l229 -462l229 462q22 44 34.5 62.5t31.5 32.5q29 21 65 21q33 0 65 -16
q34 -17 53 -45.5t20 -60.5q1 -23 -6.5 -43.5t-29.5 -66.5l-322 -642v-378q0 -51 -3.5 -74t-15.5 -48q-16 -30 -48.5 -48t-72.5 -18zM663 1586l-122 121l-122 -121q-42 -42 -73 -53q-52 -17 -97 28q-44 44 -28 97q11 31 53 73l154 154q18 18 30.5 28.5t35.5 21t47 10.5
t47 -10.5t35.5 -21t30.5 -28.5l154 -154q42 -42 53 -73q16 -53 -28 -97q-45 -45 -97 -28q-31 11 -73 53z" />
    <glyph glyph-name="ycircumflex" unicode="&#x177;" horiz-adv-x="918" 
d="M178 -152q41 0 69 21t46 75l37 111l-269 793q-28 84 -15 121q12 36 45.5 58.5t75.5 22.5q29 0 50 -9.5t35.5 -30.5t22 -38t17.5 -47l166 -516l168 516q10 30 17.5 47t22 38t35.5 30.5t50 9.5q42 0 75.5 -22.5t45.5 -58.5q13 -37 -15 -121l-351 -1019q-26 -79 -79 -133
q-81 -82 -213 -82q-69 0 -100 16q-57 30 -57 103t57 103q24 12 64 12zM583 1229l-122 121l-122 -121q-42 -42 -73 -53q-52 -17 -97 28q-44 44 -28 97q11 31 53 73l154 154q18 18 30.5 28.5t35.5 21t47 10.5t47 -10.5t35.5 -21t30.5 -28.5l154 -154q42 -42 53 -73
q16 -53 -28 -97q-45 -45 -97 -28q-31 11 -73 53z" />
    <glyph glyph-name="Ydieresis" unicode="&#x178;" horiz-adv-x="1080" 
d="M540 -8q-40 0 -72.5 18t-48.5 48q-12 25 -15.5 48t-3.5 74v378l-322 642q-22 46 -29.5 66.5t-6.5 43.5q1 32 20 60.5t53 45.5q32 16 65 16q36 0 65 -21q19 -14 31.5 -32.5t34.5 -62.5l229 -462l229 462q22 44 34.5 62.5t31.5 32.5q29 21 65 21q33 0 65 -16
q34 -17 53 -45.5t20 -60.5q1 -23 -6.5 -43.5t-29.5 -66.5l-322 -642v-378q0 -51 -3.5 -74t-15.5 -48q-16 -30 -48.5 -48t-72.5 -18zM901 1691q0 -55 -39.5 -94.5t-94.5 -39.5t-94.5 39.5t-39.5 94.5t39.5 94.5t94.5 39.5t94.5 -39.5t39.5 -94.5zM449 1691q0 -55 -39.5 -94.5
t-94.5 -39.5t-94.5 39.5t-39.5 94.5t39.5 94.5t94.5 39.5t94.5 -39.5t39.5 -94.5z" />
    <glyph glyph-name="Zacute" unicode="&#x179;" horiz-adv-x="1131" 
d="M698 1176h-424q-78 0 -109 16q-27 14 -43 43t-16 65t16 65t43 43q31 16 109 16h574q36 0 57.5 -2t48.5 -11.5t46 -28.5q43 -43 43 -106q0 -45 -47 -120l-572 -908h452q78 0 109 -16q27 -14 43 -43t16 -65t-16 -65t-43 -43q-31 -16 -109 -16h-602q-36 0 -57.5 2
t-48.5 11.5t-46 28.5q-43 43 -43 106q0 45 47 120zM544 1554q-59 38 -54 96q2 31 39 90l85 136q33 53 55 69q26 18 57 18q32 0 61 -18q59 -38 54 -96q-2 -31 -39 -90l-85 -136q-33 -53 -55 -69q-25 -18 -57 -18q-33 0 -61 18z" />
    <glyph glyph-name="zacute" unicode="&#x17a;" horiz-adv-x="941" 
d="M84 924q0 73 57 103q29 15 107 15h472q75 0 108 -19q26 -14 39.5 -39t13.5 -52q0 -33 -10.5 -57.5t-42.5 -67.5l-422 -571h312q78 0 107 -15q57 -30 57 -103t-57 -103q-29 -15 -107 -15h-498q-75 0 -108 19q-26 14 -39.5 39t-13.5 52q0 33 10.5 57.5t42.5 67.5l418 571
h-282q-78 0 -107 15q-57 30 -57 103zM451 1198q-59 38 -54 96q2 31 39 90l85 136q33 53 55 69q26 18 57 18q33 0 61 -18q59 -38 54 -96q-2 -31 -39 -90l-85 -136q-33 -53 -55 -69q-25 -18 -57 -18t-61 18z" />
    <glyph glyph-name="Zdotaccent" unicode="&#x17b;" horiz-adv-x="1131" 
d="M698 1176h-424q-78 0 -109 16q-27 14 -43 43t-16 65t16 65t43 43q31 16 109 16h574q36 0 57.5 -2t48.5 -11.5t46 -28.5q43 -43 43 -106q0 -45 -47 -120l-572 -908h452q78 0 109 -16q27 -14 43 -43t16 -65t-16 -65t-43 -43q-31 -16 -109 -16h-602q-36 0 -57.5 2
t-48.5 11.5t-46 28.5q-43 43 -43 106q0 45 47 120zM580 1564q-56 0 -95.5 39.5t-39.5 94.5t39.5 94.5t95.5 39.5t95.5 -39.5t39.5 -94.5t-39.5 -94.5t-95.5 -39.5z" />
    <glyph glyph-name="zdotaccent" unicode="&#x17c;" horiz-adv-x="941" 
d="M84 924q0 73 57 103q29 15 107 15h472q75 0 108 -19q26 -14 39.5 -39t13.5 -52q0 -33 -10.5 -57.5t-42.5 -67.5l-422 -571h312q78 0 107 -15q57 -30 57 -103t-57 -103q-29 -15 -107 -15h-498q-75 0 -108 19q-26 14 -39.5 39t-13.5 52q0 33 10.5 57.5t42.5 67.5l418 571
h-282q-78 0 -107 15q-57 30 -57 103zM351 1342q0 55 39.5 94.5t94.5 39.5q56 0 95.5 -39.5t39.5 -94.5t-39.5 -94.5t-95.5 -39.5q-55 0 -94.5 39.5t-39.5 94.5z" />
    <glyph glyph-name="Zcaron" unicode="&#x17d;" horiz-adv-x="1131" 
d="M698 1176h-424q-78 0 -109 16q-27 14 -43 43t-16 65t16 65t43 43q31 16 109 16h574q36 0 57.5 -2t48.5 -11.5t46 -28.5q43 -43 43 -106q0 -45 -47 -120l-572 -908h452q78 0 109 -16q27 -14 43 -43t16 -65t-16 -65t-43 -43q-31 -16 -109 -16h-602q-36 0 -57.5 2
t-48.5 11.5t-46 28.5q-43 43 -43 106q0 45 47 120zM579 1522q-24 0 -47 10.5t-35.5 21t-30.5 28.5l-154 154q-42 42 -53 73q-16 53 28 97q43 44 96 28q30 -9 74 -53l122 -121l122 121q44 44 74 53q53 16 96 -28q44 -44 28 -97q-11 -31 -53 -73l-154 -154
q-18 -18 -30.5 -28.5t-35.5 -21t-47 -10.5z" />
    <glyph glyph-name="zcaron" unicode="&#x17e;" horiz-adv-x="941" 
d="M84 924q0 73 57 103q29 15 107 15h472q75 0 108 -19q26 -14 39.5 -39t13.5 -52q0 -33 -10.5 -57.5t-42.5 -67.5l-422 -571h312q78 0 107 -15q57 -30 57 -103t-57 -103q-29 -15 -107 -15h-498q-75 0 -108 19q-26 14 -39.5 39t-13.5 52q0 33 10.5 57.5t42.5 67.5l418 571
h-282q-78 0 -107 15q-57 30 -57 103zM485 1166q-24 0 -47 10.5t-35.5 21t-30.5 28.5l-154 154q-42 42 -53 73q-16 53 28 97q43 44 96 28q30 -9 74 -53l122 -121l122 121q44 44 74 53q53 16 96 -28q44 -44 28 -97q-11 -31 -53 -73l-154 -154q-18 -18 -30.5 -28.5t-35.5 -21
t-47 -10.5z" />
    <glyph glyph-name="longs" unicode="&#x17f;" horiz-adv-x="550" 
d="M145 170v971q0 133 76 215.5t225 82.5h14q72 0 107 -18q52 -27 52 -93q0 -67 -52 -93q-26 -13 -78 -16q-84 -5 -84 -92v-957q0 -82 -17 -116q-31 -62 -113 -62t-113 62q-17 34 -17 116z" />
    <glyph glyph-name="uni018F" unicode="&#x18f;" horiz-adv-x="1275" 
d="M809 1112q-68 76 -169 76q-144 0 -210 -147q-33 -70 -69 -99q-31 -24 -80 -24q-59 0 -97 38q-37 37 -37 106q0 50 30.5 117.5t94.5 128.5q68 66 154 97t211 31q228 0 376 -150q42 -42 69.5 -90t43 -92.5t23 -114.5t9 -124.5t1.5 -152.5t-1.5 -152.5t-9 -124.5t-23 -114.5
t-43 -92.5t-69.5 -90q-148 -150 -382 -150q-118 0 -206.5 35.5t-169.5 116.5q-76 76 -105.5 179t-29.5 263v22q0 28 1.5 45t10.5 42.5t27 43.5t43.5 27t42.5 10.5t45 1.5h589q-2 154 -16 223t-54 115zM631 236q113 0 179 76q32 37 47 89t19 161h-490q4 -109 19 -161t47 -89
q66 -76 179 -76z" />
    <glyph glyph-name="florin" unicode="&#x192;" horiz-adv-x="923" 
d="M105 -200l159 793h-52q-61 0 -88 14q-48 25 -48 86t48 86q27 14 88 14h92l69 348q31 151 115.5 225t208.5 74h12q70 0 108 -18q53 -27 53 -92q0 -68 -52 -94q-26 -14 -66 -15h-11q-104 -4 -123 -102l-64 -326h84q61 0 88 -14q48 -25 48 -86t-48 -86q-27 -14 -88 -14h-124
l-169 -841q-9 -47 -18.5 -70.5t-30.5 -43.5q-28 -27 -77 -27q-54 0 -91 35q-29 28 -32 72t9 82z" />
    <glyph glyph-name="uni01B5" unicode="&#x1b5;" horiz-adv-x="1131" 
d="M698 1176h-424q-78 0 -109 16q-27 14 -43 43t-16 65t16 65t43 43q31 16 109 16h574q36 0 57.5 -2t48.5 -11.5t46 -28.5q43 -43 43 -106q0 -45 -47 -120l-207 -329h2q69 0 97 -15q51 -28 51 -94t-51 -94q-28 -15 -97 -15h-140l-227 -361h452q78 0 109 -16q27 -14 43 -43
t16 -65t-16 -65t-43 -43q-31 -16 -109 -16h-602q-36 0 -57.5 2t-48.5 11.5t-46 28.5q-43 43 -43 106q0 45 47 120l215 341h-5q-68 0 -97 15q-51 28 -51 94t51 94q29 15 97 15h142z" />
    <glyph glyph-name="uni01B6" unicode="&#x1b6;" horiz-adv-x="941" 
d="M84 924q0 73 57 103q29 15 107 15h472q75 0 108 -19q26 -14 39.5 -39t13.5 -52q0 -33 -10.5 -57.5t-42.5 -67.5l-127 -172q42 -1 67 -14q48 -23 48 -86q0 -61 -48 -86q-27 -14 -87 -14h-128l-147 -199h312q78 0 107 -15q57 -30 57 -103t-57 -103q-29 -15 -107 -15h-498
q-75 0 -108 19q-26 14 -39.5 39t-13.5 52q0 33 10.5 57.5t42.5 67.5l146 200q-56 0 -81 14q-48 25 -48 86q0 63 48 86q27 14 88 14h140l125 171h-282q-78 0 -107 15q-57 30 -57 103z" />
    <glyph glyph-name="uni01C4" unicode="&#x1c4;" horiz-adv-x="2452" 
d="M335 0q-28 0 -45 1.5t-42.5 10.5t-43.5 27t-27 43.5t-10.5 42.5t-1.5 45v1084q0 28 1.5 45t10.5 42.5t27 43.5t43.5 27t42.5 10.5t45 1.5h346q146 0 248 -49.5t182 -158.5q62 -83 77 -188.5t15 -315.5t-15 -315.5t-77 -188.5q-80 -109 -182 -158.5t-248 -49.5h-346z
M445 1176v-928h212q138 0 208 88q37 46 47.5 121.5t10.5 254.5t-10.5 254.5t-47.5 121.5q-70 88 -208 88h-212zM2019 1176h-424q-78 0 -109 16q-27 14 -43 43t-16 65t16 65t43 43q31 16 109 16h574q36 0 57.5 -2t48.5 -11.5t46 -28.5q43 -43 43 -106q0 -45 -47 -120
l-572 -908h452q78 0 109 -16q27 -14 43 -43t16 -65t-16 -65t-43 -43q-31 -16 -109 -16h-602q-36 0 -57.5 2t-48.5 11.5t-46 28.5q-43 43 -43 106q0 45 47 120zM1900 1522q-24 0 -47 10.5t-35.5 21t-30.5 28.5l-154 154q-42 42 -53 73q-16 53 28 97q43 44 96 28q30 -9 74 -53
l122 -121l122 121q44 44 74 53q53 16 96 -28q44 -44 28 -97q-11 -31 -53 -73l-154 -154q-18 -18 -30.5 -28.5t-35.5 -21t-47 -10.5z" />
    <glyph glyph-name="uni01C5" unicode="&#x1c5;" horiz-adv-x="2262" 
d="M335 0q-28 0 -45 1.5t-42.5 10.5t-43.5 27t-27 43.5t-10.5 42.5t-1.5 45v1084q0 28 1.5 45t10.5 42.5t27 43.5t43.5 27t42.5 10.5t45 1.5h346q146 0 248 -49.5t182 -158.5q62 -83 77 -188.5t15 -315.5t-15 -315.5t-77 -188.5q-80 -109 -182 -158.5t-248 -49.5h-346z
M445 1176v-928h212q138 0 208 88q37 46 47.5 121.5t10.5 254.5t-10.5 254.5t-47.5 121.5q-70 88 -208 88h-212zM1405 924q0 73 57 103q29 15 107 15h472q75 0 108 -19q26 -14 39.5 -39t13.5 -52q0 -33 -10.5 -57.5t-42.5 -67.5l-422 -571h312q78 0 107 -15q57 -30 57 -103
t-57 -103q-29 -15 -107 -15h-498q-75 0 -108 19q-26 14 -39.5 39t-13.5 52q0 33 10.5 57.5t42.5 67.5l418 571h-282q-78 0 -107 15q-57 30 -57 103zM1806 1166q-24 0 -47 10.5t-35.5 21t-30.5 28.5l-154 154q-42 42 -53 73q-16 53 28 97q43 44 96 28q30 -9 74 -53l122 -121
l122 121q44 44 74 53q53 16 96 -28q44 -44 28 -97q-11 -31 -53 -73l-154 -154q-18 -18 -30.5 -28.5t-35.5 -21t-47 -10.5z" />
    <glyph glyph-name="uni01C6" unicode="&#x1c6;" horiz-adv-x="2060" 
d="M974 1254v-1085q0 -51 -3.5 -73t-15.5 -44q-14 -27 -44.5 -43.5t-67.5 -16.5q-51 0 -83 30q-26 24 -38 74q-52 -58 -113 -83t-146 -25q-162 0 -253 94q-36 37 -59 85t-33 109.5t-13 114.5t-3 131q0 77 3 129.5t13 114t33 109.5t59 85q91 94 252 94q162 0 252 -104v304
q0 82 17 116q31 62 113 62t113 -62q17 -34 17 -116zM362 522q0 -56 3 -96t14 -80.5t29.5 -65.5t50.5 -40.5t77 -15.5q46 0 79 15.5t52 40.5t30 65.5t14 80.5t3 96q0 71 -6 118t-23.5 91t-54 65.5t-92.5 21.5t-92.5 -21.5t-54 -65.5t-23.5 -91t-6 -118zM1202 924q0 73 57 103
q29 15 107 15h472q75 0 108 -19q26 -14 39.5 -39t13.5 -52q0 -33 -10.5 -57.5t-42.5 -67.5l-422 -571h312q78 0 107 -15q57 -30 57 -103t-57 -103q-29 -15 -107 -15h-498q-75 0 -108 19q-26 14 -39.5 39t-13.5 52q0 33 10.5 57.5t42.5 67.5l418 571h-282q-78 0 -107 15
q-57 30 -57 103zM1603 1166q-24 0 -47 10.5t-35.5 21t-30.5 28.5l-154 154q-42 42 -53 73q-16 53 28 97q43 44 96 28q30 -9 74 -53l122 -121l122 121q44 44 74 53q53 16 96 -28q44 -44 28 -97q-11 -31 -53 -73l-154 -154q-18 -18 -30.5 -28.5t-35.5 -21t-47 -10.5z" />
    <glyph glyph-name="uni01C7" unicode="&#x1c7;" horiz-adv-x="2169" 
d="M335 0q-28 0 -45 1.5t-42.5 10.5t-43.5 27t-27 43.5t-10.5 42.5t-1.5 45v1074q0 51 3.5 74t15.5 48q16 30 48.5 48t72.5 18t72.5 -18t48.5 -48q12 -25 15.5 -48t3.5 -74v-996h485q78 0 109 -16q27 -14 43 -43t16 -65t-16 -65t-43 -43q-31 -16 -109 -16h-595zM1520 236
q105 0 164.5 62t59.5 182v764q0 51 3.5 74t15.5 48q16 30 48.5 48t72.5 18t72.5 -18t48.5 -48q12 -25 15.5 -48t3.5 -74v-776q0 -114 -41 -207t-111.5 -151.5t-160.5 -90t-191 -31.5q-167 0 -276 79q-63 46 -63 111q0 54 39 90q33 29 76 29q35 0 95 -30q63 -31 129 -31z" />
    <glyph glyph-name="uni01C8" unicode="&#x1c8;" horiz-adv-x="1700" 
d="M335 0q-28 0 -45 1.5t-42.5 10.5t-43.5 27t-27 43.5t-10.5 42.5t-1.5 45v1074q0 51 3.5 74t15.5 48q16 30 48.5 48t72.5 18t72.5 -18t48.5 -48q12 -25 15.5 -48t3.5 -74v-996h485q78 0 109 -16q27 -14 43 -43t16 -65t-16 -65t-43 -43q-31 -16 -109 -16h-595zM1273 1335
q0 62 44 106t106 44t106 -44t44 -106t-44 -106t-106 -44t-106 44t-44 106zM1293 -78v920q0 82 17 116q31 62 113 62t113 -62q17 -34 17 -116v-934q0 -59 -17 -111t-52 -94.5t-94.5 -67.5t-137.5 -25h-14q-72 0 -107 18q-52 27 -52 93q0 67 52 93q26 13 78 16q84 5 84 92z
" />
    <glyph glyph-name="uni01C9" unicode="&#x1c9;" horiz-adv-x="1189" 
d="M397 1254v-942q0 -87 84 -92q52 -3 78 -16q52 -26 52 -93q0 -66 -52 -93q-35 -18 -107 -18h-14q-78 0 -137.5 25t-94.5 67.5t-52 94.5t-17 111v956q0 82 17 116q31 62 113 62t113 -62q17 -34 17 -116zM762 1335q0 62 44 106t106 44t106 -44t44 -106t-44 -106t-106 -44
t-106 44t-44 106zM782 -78v920q0 82 17 116q31 62 113 62t113 -62q17 -34 17 -116v-934q0 -59 -17 -111t-52 -94.5t-94.5 -67.5t-137.5 -25h-14q-73 0 -107 18q-52 27 -52 93q0 67 52 93q26 13 78 16q84 5 84 92z" />
    <glyph glyph-name="uni01CA" unicode="&#x1ca;" horiz-adv-x="2444" 
d="M1258 1244v-1078q0 -93 -38 -131q-43 -43 -105 -43q-46 0 -81 29t-82 99l-507 748v-688q0 -51 -3.5 -74t-15.5 -48q-16 -30 -48.5 -48t-72.5 -18t-72.5 18t-48.5 48q-12 25 -15.5 48t-3.5 74v1078q0 92 38 131q43 43 105 43q46 0 81 -29t83 -99l506 -748v688q0 51 3.5 74
t15.5 48q16 30 48.5 48t72.5 18t72.5 -18t48.5 -48q12 -25 15.5 -48t3.5 -74zM1795 236q105 0 164.5 62t59.5 182v764q0 51 3.5 74t15.5 48q16 30 48.5 48t72.5 18t72.5 -18t48.5 -48q12 -25 15.5 -48t3.5 -74v-776q0 -114 -41 -207t-111.5 -151.5t-160.5 -90t-191 -31.5
q-167 0 -276 79q-63 46 -63 111q0 54 39 90q33 29 76 29q35 0 95 -30q63 -31 129 -31z" />
    <glyph glyph-name="uni01CB" unicode="&#x1cb;" horiz-adv-x="1975" 
d="M1258 1244v-1078q0 -93 -38 -131q-43 -43 -105 -43q-46 0 -81 29t-82 99l-507 748v-688q0 -51 -3.5 -74t-15.5 -48q-16 -30 -48.5 -48t-72.5 -18t-72.5 18t-48.5 48q-12 25 -15.5 48t-3.5 74v1078q0 92 38 131q43 43 105 43q46 0 81 -29t83 -99l506 -748v688q0 51 3.5 74
t15.5 48q16 30 48.5 48t72.5 18t72.5 -18t48.5 -48q12 -25 15.5 -48t3.5 -74zM1548 1335q0 62 44 106t106 44t106 -44t44 -106t-44 -106t-106 -44t-106 44t-44 106zM1568 -78v920q0 82 17 116q31 62 113 62t113 -62q17 -34 17 -116v-934q0 -59 -17 -111t-52 -94.5
t-94.5 -67.5t-137.5 -25h-14q-73 0 -107 18q-52 27 -52 93q0 67 52 93q26 13 78 16q84 5 84 92z" />
    <glyph glyph-name="uni01CC" unicode="&#x1cc;" horiz-adv-x="1698" 
d="M398 944q48 53 117.5 81.5t143.5 28.5q154 0 246 -92q59 -59 82.5 -131t23.5 -165v-496q0 -82 -17 -116q-31 -62 -113 -62t-113 62q-17 34 -17 116v460q0 97 -50.5 142.5t-121.5 45.5t-122.5 -45.5t-51.5 -142.5v-460q0 -82 -17 -116q-31 -62 -113 -62t-113 62
q-17 34 -17 116v703q0 51 3.5 73t15.5 44q14 27 44.5 43.5t67.5 16.5q51 0 83 -30q27 -25 39 -76zM1271 1335q0 62 44 106t106 44t106 -44t44 -106t-44 -106t-106 -44t-106 44t-44 106zM1291 -78v920q0 82 17 116q31 62 113 62t113 -62q17 -34 17 -116v-934q0 -59 -17 -111
t-52 -94.5t-94.5 -67.5t-137.5 -25h-14q-72 0 -107 18q-52 27 -52 93q0 67 52 93q26 13 78 16q84 5 84 92z" />
    <glyph glyph-name="uni01F1" unicode="&#x1f1;" horiz-adv-x="2452" 
d="M335 0q-28 0 -45 1.5t-42.5 10.5t-43.5 27t-27 43.5t-10.5 42.5t-1.5 45v1084q0 28 1.5 45t10.5 42.5t27 43.5t43.5 27t42.5 10.5t45 1.5h346q146 0 248 -49.5t182 -158.5q62 -83 77 -188.5t15 -315.5t-15 -315.5t-77 -188.5q-80 -109 -182 -158.5t-248 -49.5h-346z
M445 1176v-928h212q138 0 208 88q37 46 47.5 121.5t10.5 254.5t-10.5 254.5t-47.5 121.5q-70 88 -208 88h-212zM2019 1176h-424q-78 0 -109 16q-27 14 -43 43t-16 65t16 65t43 43q31 16 109 16h574q36 0 57.5 -2t48.5 -11.5t46 -28.5q43 -43 43 -106q0 -45 -47 -120
l-572 -908h452q78 0 109 -16q27 -14 43 -43t16 -65t-16 -65t-43 -43q-31 -16 -109 -16h-602q-36 0 -57.5 2t-48.5 11.5t-46 28.5q-43 43 -43 106q0 45 47 120z" />
    <glyph glyph-name="uni01F2" unicode="&#x1f2;" horiz-adv-x="2262" 
d="M335 0q-28 0 -45 1.5t-42.5 10.5t-43.5 27t-27 43.5t-10.5 42.5t-1.5 45v1084q0 28 1.5 45t10.5 42.5t27 43.5t43.5 27t42.5 10.5t45 1.5h346q146 0 248 -49.5t182 -158.5q62 -83 77 -188.5t15 -315.5t-15 -315.5t-77 -188.5q-80 -109 -182 -158.5t-248 -49.5h-346z
M445 1176v-928h212q138 0 208 88q37 46 47.5 121.5t10.5 254.5t-10.5 254.5t-47.5 121.5q-70 88 -208 88h-212zM1405 924q0 73 57 103q29 15 107 15h472q75 0 108 -19q26 -14 39.5 -39t13.5 -52q0 -33 -10.5 -57.5t-42.5 -67.5l-422 -571h312q78 0 107 -15q57 -30 57 -103
t-57 -103q-29 -15 -107 -15h-498q-75 0 -108 19q-26 14 -39.5 39t-13.5 52q0 33 10.5 57.5t42.5 67.5l418 571h-282q-78 0 -107 15q-57 30 -57 103z" />
    <glyph glyph-name="uni01F3" unicode="&#x1f3;" horiz-adv-x="2060" 
d="M974 1254v-1085q0 -51 -3.5 -73t-15.5 -44q-14 -27 -44.5 -43.5t-67.5 -16.5q-51 0 -83 30q-26 24 -38 74q-52 -58 -113 -83t-146 -25q-162 0 -253 94q-36 37 -59 85t-33 109.5t-13 114.5t-3 131q0 77 3 129.5t13 114t33 109.5t59 85q91 94 252 94q162 0 252 -104v304
q0 82 17 116q31 62 113 62t113 -62q17 -34 17 -116zM362 522q0 -56 3 -96t14 -80.5t29.5 -65.5t50.5 -40.5t77 -15.5q46 0 79 15.5t52 40.5t30 65.5t14 80.5t3 96q0 71 -6 118t-23.5 91t-54 65.5t-92.5 21.5t-92.5 -21.5t-54 -65.5t-23.5 -91t-6 -118zM1203 924q0 73 57 103
q29 15 107 15h472q75 0 108 -19q26 -14 39.5 -39t13.5 -52q0 -33 -10.5 -57.5t-42.5 -67.5l-422 -571h312q78 0 107 -15q57 -30 57 -103t-57 -103q-29 -15 -107 -15h-498q-75 0 -108 19q-26 14 -39.5 39t-13.5 52q0 33 10.5 57.5t42.5 67.5l418 571h-282q-78 0 -107 15
q-57 30 -57 103z" />
    <glyph glyph-name="Aringacute" unicode="&#x1fa;" horiz-adv-x="1272" 
d="M898 1471q0 -119 -93 -199l399 -1058q16 -43 22 -68t0.5 -55t-29.5 -56q-40 -43 -100 -43q-45 0 -77 26q-18 15 -29.5 35.5t-29.5 69.5l-47 129h-556l-47 -129q-18 -49 -29.5 -69.5t-29.5 -35.5q-32 -26 -77 -26q-60 0 -100 43q-24 26 -29.5 56t0.5 55t22 68l399 1058
q-93 78 -93 199q0 108 77 185t185 77t185 -77t77 -185zM636 1003l-191 -517h382zM817 1913l-88 -88q-42 -42 -73 -53q-52 -17 -97 28q-44 44 -28 97q11 31 53 73l88 88q42 42 73 53q52 17 97 -28q44 -44 28 -97q-11 -31 -53 -73zM636 1587q-48 0 -82 -34t-34 -82t34 -83
t82 -35t82 35t34 83t-34 82t-82 34z" />
    <glyph glyph-name="aringacute" unicode="&#x1fb;" horiz-adv-x="1065" 
d="M700 1872l-88 -88q-42 -42 -73 -53q-52 -17 -97 28q-44 44 -28 97q11 31 53 73l88 88q42 42 73 53q52 17 97 -28q44 -44 28 -97q-11 -31 -53 -73zM487 834q-83 0 -167 -50q-46 -27 -86 -27q-46 0 -74 35q-29 35 -29 78q0 73 97 124q114 60 263 60q218 0 328.5 -92.5
t110.5 -275.5v-517q0 -51 -3.5 -73t-15.5 -44q-14 -27 -44.5 -43.5t-67.5 -16.5q-51 0 -83 30q-26 24 -38 69q-58 -57 -114.5 -80t-143.5 -23q-174 0 -266 94q-86 86 -86 234q0 132 92 217t268 85h242v52q0 85 -45 124.5t-138 39.5zM670 384v56h-198q-154 0 -154 -120
q0 -56 39.5 -87t118.5 -31q53 0 88 10t66 40q23 21 31.5 50.5t8.5 81.5zM519 1168q-108 0 -185 77t-77 185t77 185t185 77t185 -77t77 -185t-77 -185t-185 -77zM519 1546q-48 0 -82 -34t-34 -82t34 -83t82 -35t82 35t34 83t-34 82t-82 34z" />
    <glyph glyph-name="AEacute" unicode="&#x1fc;" horiz-adv-x="1897" 
d="M1025 0q-28 0 -45 1.5t-42.5 10.5t-43.5 27t-27 43.5t-10.5 42.5t-1.5 45v142h-441l-102 -204q-22 -44 -34.5 -62.5t-31.5 -32.5q-29 -21 -65 -21q-33 0 -65 16q-34 17 -53 45.5t-20 60.5q-1 23 6.5 43.5t29.5 66.5l515 1032q48 95 92 130q49 38 118 38h831q78 0 109 -16
q27 -14 43 -43t16 -65t-16 -65t-43 -43q-31 -16 -109 -16h-500v-334h404q78 0 109 -16q27 -14 43 -43t16 -65t-16 -65t-43 -43q-31 -16 -109 -16h-404v-346h500q78 0 109 -16q27 -14 43 -43t16 -65t-16 -65t-43 -43q-31 -16 -109 -16h-610zM531 546h324v649zM963 1554
q-59 38 -54 96q2 31 39 90l85 136q33 53 55 69q26 18 57 18q33 0 61 -18q59 -38 54 -96q-2 -31 -39 -90l-85 -136q-33 -53 -55 -69q-25 -18 -57 -18t-61 18z" />
    <glyph glyph-name="aeacute" unicode="&#x1fd;" horiz-adv-x="1669" 
d="M670 384v56h-198q-154 0 -154 -120q0 -56 39.5 -87t118.5 -31q53 0 88 10t66 40q23 21 31.5 50.5t8.5 81.5zM1323 618q-3 68 -23 113q-22 49 -67 78t-108 29t-108 -29t-66 -78q-22 -48 -23 -113h395zM1125 1054q205 0 325.5 -130.5t127.5 -334.5q2 -79 -35 -116
q-15 -15 -36.5 -23t-36.5 -9t-41 -1h-501q0 -104 60 -168t170 -64q105 0 180 56q55 39 97 39q39 0 72 -32.5t33 -76.5q0 -66 -102 -134q-106 -72 -285 -72q-242 0 -367 145q-81 -87 -163 -116t-203 -29q-174 0 -266 94q-86 86 -86 234q0 132 92 217t268 85h242v52
q0 85 -45 124.5t-138 39.5q-83 0 -167 -50q-46 -27 -86 -27q-46 0 -74 35q-29 35 -29 78q0 73 97 124q114 60 263 60q234 0 339 -113q111 113 295 113zM735 1198q-59 38 -54 96q2 31 39 90l85 136q33 53 55 69q26 18 57 18q33 0 61 -18q59 -38 54 -96q-2 -31 -39 -90
l-85 -136q-33 -53 -55 -69q-25 -18 -57 -18t-61 18z" />
    <glyph glyph-name="Oslashacute" unicode="&#x1fe;" horiz-adv-x="1288" 
d="M1086 1426q0 -31 -28 -87l-29 -57q41 -41 68 -89t42 -92.5t22.5 -114t9 -123.5t1.5 -151q0 -98 -1.5 -152.5t-9 -124.5t-23 -114.5t-43 -92.5t-69.5 -90q-148 -150 -382 -150q-120 0 -212 40l-17 -36q-28 -56 -53 -75q-42 -31 -97 -6q-64 30 -64 87q0 31 28 87l28 57
q-40 41 -67 89t-41.5 92.5t-22 114t-9 123.5t-1.5 151q0 98 1.5 152.5t9 124.5t23 114.5t43 92.5t69.5 90q148 150 382 150q119 0 210 -40l18 36q28 56 53 75q42 31 97 6q64 -30 64 -87zM644 1188q-113 0 -179 -76q-41 -46 -55 -123.5t-14 -276.5q0 -116 5.5 -176t24.5 -103
l344 721q-56 34 -126 34zM643 236q113 0 179 76q41 47 55.5 124.5t14.5 275.5q0 114 -6 174.5t-25 104.5l-344 -721q56 -34 126 -34zM608 1554q-59 38 -54 96q2 31 39 90l85 136q33 53 55 69q26 18 57 18q32 0 61 -18q59 -38 54 -96q-2 -31 -39 -90l-85 -136
q-33 -53 -55 -69q-26 -18 -57 -18q-33 0 -61 18z" />
    <glyph glyph-name="oslashacute" unicode="&#x1ff;" horiz-adv-x="1087" 
d="M136 -4q3 30 30 76l38 63q-58 68 -80 157t-22 229q0 148 25.5 240.5t93.5 164.5q122 128 322 128q103 0 192 -37l27 45q29 48 53 63q42 26 90 -3t45 -78q-3 -30 -30 -76l-37 -61q58 -69 80 -158.5t22 -227.5q0 -149 -25.5 -241t-93.5 -164q-122 -128 -323 -128
q-107 0 -191 37l-28 -47q-29 -48 -53 -63q-42 -26 -90 3t-45 78zM383 362l254 432q-38 24 -94 24q-76 0 -121 -45q-37 -37 -48.5 -97t-11.5 -155q0 -109 21 -159zM446 249q40 -25 97 -25q76 0 122 46q37 36 48.5 96t11.5 155q0 108 -23 160zM509 1198q-59 38 -54 96
q2 31 39 90l85 136q33 53 55 69q26 18 57 18q33 0 61 -18q59 -38 54 -96q-2 -31 -39 -90l-85 -136q-33 -53 -55 -69q-25 -18 -57 -18t-61 18z" />
    <glyph glyph-name="Scommaaccent" unicode="&#x218;" horiz-adv-x="1185" 
d="M646 581l-170 25q-181 27 -276 119q-102 99 -102 279q0 193 134 312.5t362 119.5q173 0 322 -69q114 -53 114 -139q0 -46 -32 -86q-33 -38 -83 -38q-42 0 -104 32q-106 56 -225 56q-105 0 -162 -49.5t-57 -122.5q0 -71 41 -109q47 -42 132 -55l167 -24q185 -27 273 -111
q110 -103 110 -301q0 -134 -70.5 -233t-189 -149t-269.5 -50q-114 0 -192 16.5t-162 56.5q-74 35 -108 70.5t-34 92.5q0 53 38 91q31 31 78 31q41 0 113 -38q78 -41 135.5 -57.5t134.5 -16.5q122 0 187.5 47t65.5 132q0 77 -43 119q-37 35 -128 49zM386 -503q-59 38 -54 96
q2 31 39 90l85 136q33 53 55 69q25 18 57 18t61 -18q59 -38 54 -96q-2 -31 -39 -90l-85 -136q-33 -53 -55 -69q-26 -18 -57 -18q-33 0 -61 18z" />
    <glyph glyph-name="scommaaccent" unicode="&#x219;" horiz-adv-x="1001" 
d="M498 1054q148 0 269 -50q56 -22 83 -51q27 -30 27 -73q0 -46 -34 -80q-31 -31 -73 -31q-29 0 -76 22q-113 52 -202 52q-72 0 -109.5 -29.5t-37.5 -73.5t27 -65t81 -26l163 -16q153 -14 232 -92.5t79 -212.5q0 -165 -123.5 -252.5t-317.5 -87.5q-121 0 -205.5 22.5
t-155.5 70.5q-63 42 -63 100q0 55 42 89q32 26 69 26q35 0 86 -30q103 -61 231 -61q78 0 131 28.5t53 83.5q0 86 -110 97l-164 15q-306 29 -306 294q0 79 33 142.5t89.5 104t128.5 62.5t153 22zM316 -503q-59 38 -54 96q2 31 39 90l85 136q33 53 55 69q25 18 57 18t61 -18
q59 -38 54 -96q-2 -31 -39 -90l-85 -136q-33 -53 -55 -69q-26 -18 -57 -18q-33 0 -61 18z" />
    <glyph glyph-name="uni021A" unicode="&#x21a;" horiz-adv-x="1138" 
d="M920 1176h-211v-996q0 -51 -3.5 -74t-15.5 -48q-16 -30 -48.5 -48t-72.5 -18t-72.5 18t-48.5 48q-12 25 -15.5 48t-3.5 74v996h-211q-78 0 -109 16q-27 14 -43 43t-16 65t16 65t43 43q31 16 109 16h702q78 0 109 -16q27 -14 43 -43t16 -65t-16 -65t-43 -43
q-31 -16 -109 -16zM378 -503q-59 38 -54 96q2 31 39 90l85 136q33 53 55 69q25 18 57 18t61 -18q59 -38 54 -96q-2 -31 -39 -90l-85 -136q-33 -53 -55 -69q-25 -18 -57 -18q-33 0 -61 18z" />
    <glyph glyph-name="uni021B" unicode="&#x21b;" horiz-adv-x="732" 
d="M197 298v514h-26q-61 0 -88 14q-48 25 -48 86t48 86q27 14 88 14h26v139q0 82 17 116q31 62 113 62t113 -62q17 -34 17 -116v-139h78q61 0 88 -14q48 -25 48 -86t-48 -86q-27 -14 -88 -14h-78v-500q0 -87 84 -92q52 -3 78 -16q52 -26 52 -93q0 -66 -52 -93
q-35 -18 -107 -18h-14q-78 0 -137.5 25t-94.5 67.5t-52 94.5t-17 111zM208 -503q-59 38 -54 96q2 31 39 90l85 136q33 53 55 69q25 18 57 18t61 -18q59 -38 54 -96q-2 -31 -39 -90l-85 -136q-33 -53 -55 -69q-25 -18 -57 -18q-33 0 -61 18z" />
    <glyph glyph-name="uni0237" unicode="&#x237;" horiz-adv-x="550" 
d="M145 -76v918q0 82 17 116q31 62 113 62t113 -62q17 -34 17 -116v-934q0 -58 -18 -110t-53.5 -94.5t-95 -68t-134.5 -25.5h-14q-72 0 -107 18q-52 27 -52 92q0 67 51 93q28 15 66 15h6q91 0 91 96z" />
    <glyph glyph-name="uni0259" unicode="&#x259;" horiz-adv-x="1093" 
d="M347 424q3 -68 23 -113q22 -49 67 -78t108 -29t108 29t66 78q22 48 23 113h-395zM241 602h501q0 104 -60 168t-170 64q-105 0 -180 -56q-55 -39 -97 -39q-39 0 -72 32.5t-33 76.5q0 66 102 134q107 72 284 72q78 0 145 -14.5t131 -52t108 -96.5t71 -153.5t27 -216.5
q0 -251 -123.5 -392t-329.5 -141q-205 0 -325.5 130.5t-127.5 334.5q-2 79 35 116q15 15 36.5 23t36.5 9t41 1z" />
    <glyph glyph-name="uni02BB" unicode="&#x2bb;" horiz-adv-x="562" 
d="M459 1333q6 -39 -19 -114l-69 -207q-15 -44 -25 -64t-28 -38q-32 -32 -82 -32q-43 0 -84.5 27t-48.5 76q-6 39 19 114l69 207q15 44 25 64t28 38q32 32 82 32q43 0 84.5 -27t48.5 -76z" />
    <glyph glyph-name="afii57929" unicode="&#x2bc;" horiz-adv-x="562" 
d="M459 1333q6 -39 -19 -114l-69 -207q-15 -44 -25 -64t-28 -38q-32 -32 -82 -32q-43 0 -84.5 27t-48.5 76q-6 39 19 114l69 207q15 44 25 64t28 38q32 32 82 32q43 0 84.5 -27t48.5 -76z" />
    <glyph glyph-name="circumflex" unicode="&#x2c6;" 
d="M665 1229l-122 121l-122 -121q-42 -42 -73 -53q-52 -17 -97 28q-44 44 -28 97q11 31 53 73l154 154q18 18 30.5 28.5t35.5 21t47 10.5t47 -10.5t35.5 -21t30.5 -28.5l154 -154q42 -42 53 -73q16 -53 -28 -97q-45 -45 -97 -28q-31 11 -73 53z" />
    <glyph glyph-name="caron" unicode="&#x2c7;" 
d="M543 1166q-24 0 -47 10.5t-35.5 21t-30.5 28.5l-154 154q-42 42 -53 73q-16 53 28 97q43 44 96 28q30 -9 74 -53l122 -121l122 121q44 44 74 53q53 16 96 -28q44 -44 28 -97q-11 -31 -53 -73l-154 -154q-18 -18 -30.5 -28.5t-35.5 -21t-47 -10.5z" />
    <glyph glyph-name="breve" unicode="&#x2d8;" 
d="M543 1196q-79 0 -139 23t-119 74q-54 46 -56 94q0 35 25 66q30 34 71 34q29 0 62 -27q78 -64 156 -64t156 64q33 27 62 27q41 0 71 -34q25 -31 25 -66q-2 -48 -56 -94q-59 -51 -119 -74t-139 -23z" />
    <glyph glyph-name="dotaccent" unicode="&#x2d9;" 
d="M409 1342q0 55 39.5 94.5t94.5 39.5q56 0 95.5 -39.5t39.5 -94.5t-39.5 -94.5t-95.5 -39.5q-55 0 -94.5 39.5t-39.5 94.5z" />
    <glyph glyph-name="ring" unicode="&#x2da;" 
d="M543 1168q-108 0 -185 77t-77 185t77 185t185 77t185 -77t77 -185t-77 -185t-185 -77zM543 1546q-48 0 -82 -34t-34 -82t34 -83t82 -35t82 35t34 83t-34 82t-82 34z" />
    <glyph glyph-name="ogonek" unicode="&#x2db;" 
d="M346 -503q-59 38 -54 96q2 31 39 90l85 136q33 53 55 69q26 18 57 18q32 0 61 -18q59 -38 54 -96q-2 -31 -39 -90l-85 -136q-33 -53 -55 -69q-26 -18 -57 -18q-33 0 -61 18z" />
    <glyph glyph-name="tilde" unicode="&#x2dc;" 
d="M521 1264q-60 34 -106 34t-87 -32q-36 -26 -65 -26q-43 0 -68 30q-21 25 -21 63q0 49 56 93q45 36 84.5 49t91.5 13q45 0 79 -9.5t80 -34.5q60 -34 106 -34t87 32q36 26 65 26q43 0 68 -30q21 -25 21 -63q0 -49 -56 -93q-45 -36 -84.5 -49t-91.5 -13q-45 0 -79 9.5
t-80 34.5z" />
    <glyph glyph-name="hungarumlaut" unicode="&#x2dd;" 
d="M296 1198q-59 38 -54 96q2 31 39 90l85 136q33 53 55 69q26 18 57 18q33 0 61 -18q59 -38 54 -96q-2 -31 -39 -90l-85 -136q-33 -53 -55 -69q-26 -18 -57 -18q-33 0 -61 18zM706 1198q-59 38 -54 96q2 31 39 90l85 136q33 53 55 69q25 18 57 18t61 -18q59 -38 54 -96
q-2 -31 -39 -90l-85 -136q-33 -53 -55 -69q-25 -18 -57 -18q-33 0 -61 18z" />
    <glyph glyph-name="uni0394" unicode="&#x394;" horiz-adv-x="1258" 
d="M628 1003l-279 -755h560zM1035 0h-812q-56 0 -86 7t-55 30q-40 35 -40 95q0 31 28 106l402 1066q26 67 57 94q38 34 100 34t100 -34q31 -27 57 -94l402 -1066q28 -75 28 -106q0 -60 -40 -95q-25 -23 -55 -30t-86 -7z" />
    <glyph glyph-name="uni03A9" unicode="&#x3a9;" horiz-adv-x="1334" 
d="M667 1188q-113 0 -179 -76q-41 -46 -55 -123.5t-14 -276.5q0 -295 39 -384q17 -38 39 -61t60 -49q58 -41 58 -100q0 -61 -32 -91q-30 -27 -99 -27h-266q-78 0 -109 16q-27 14 -43 43t-16 65t16 65t43 43q31 16 109 16h43q-52 53 -75 109q-47 111 -47 355q0 98 1.5 152.5
t9 124.5t23 114.5t43 92.5t69.5 90q148 150 382 150t382 -150q42 -42 69.5 -90t43 -92.5t23 -114.5t9 -124.5t1.5 -152.5q0 -244 -47 -355q-23 -56 -75 -109h43q78 0 109 -16q27 -14 43 -43t16 -65t-16 -65t-43 -43q-31 -16 -109 -16h-266q-69 0 -99 27q-32 30 -32 91
q0 59 58 100q38 26 60 49t39 61q39 89 39 384q0 199 -14 276.5t-55 123.5q-66 76 -179 76z" />
    <glyph glyph-name="uni03BC" unicode="&#x3bc;" horiz-adv-x="1156" 
d="M497 -12q-56 0 -92 28v-228q0 -82 -17 -116q-31 -62 -113 -62t-113 62q-17 34 -17 116v1084q0 82 17 116q31 62 113 62t113 -62q17 -34 17 -116v-471q0 -91 51 -134t121 -43q71 0 122.5 45.5t51.5 142.5v460q0 82 17 116q31 62 113 62t113 -62q17 -34 17 -116v-703
q0 -51 -3.5 -73t-15.5 -44q-14 -27 -44.5 -43.5t-67.5 -16.5q-51 0 -83 30q-27 25 -39 75q-49 -53 -118 -81t-143 -28z" />
    <glyph glyph-name="pi" unicode="&#x3c0;" horiz-adv-x="1169" 
d="M764 806h-359v-636q0 -82 -17 -116q-31 -62 -113 -62t-113 62q-17 34 -17 116v714q0 26 1 41.5t9.5 39.5t25.5 41t41 25.5t39.5 9.5t41.5 1h563q26 0 41.5 -1t39.5 -9.5t41 -25.5t25.5 -41t9.5 -39.5t1 -41.5v-714q0 -82 -17 -116q-31 -62 -113 -62t-113 62
q-17 34 -17 116v636z" />
    <glyph glyph-name="uni0400" unicode="&#x400;" horiz-adv-x="1207" 
d="M335 0q-28 0 -45 1.5t-42.5 10.5t-43.5 27t-27 43.5t-10.5 42.5t-1.5 45v1084q0 28 1.5 45t10.5 42.5t27 43.5t43.5 27t42.5 10.5t45 1.5h610q78 0 109 -16q27 -14 43 -43t16 -65t-16 -65t-43 -43q-31 -16 -109 -16h-500v-334h404q78 0 109 -16q27 -14 43 -43t16 -65
t-16 -65t-43 -43q-31 -16 -109 -16h-404v-346h500q78 0 109 -16q27 -14 43 -43t16 -65t-16 -65t-43 -43q-31 -16 -109 -16h-610zM665 1553q-29 -18 -61 -18t-57 18q-22 16 -55 69l-85 136q-37 59 -39 90q-5 58 54 96q29 18 61 18q31 0 57 -18q22 -16 55 -69l85 -136
q37 -59 39 -90q5 -58 -54 -96z" />
    <glyph glyph-name="afii10023" unicode="&#x401;" horiz-adv-x="1207" 
d="M335 0q-28 0 -45 1.5t-42.5 10.5t-43.5 27t-27 43.5t-10.5 42.5t-1.5 45v1084q0 28 1.5 45t10.5 42.5t27 43.5t43.5 27t42.5 10.5t45 1.5h610q78 0 109 -16q27 -14 43 -43t16 -65t-16 -65t-43 -43q-31 -16 -109 -16h-500v-334h404q78 0 109 -16q27 -14 43 -43t16 -65
t-16 -65t-43 -43q-31 -16 -109 -16h-404v-346h500q78 0 109 -16q27 -14 43 -43t16 -65t-16 -65t-43 -43q-31 -16 -109 -16h-610zM990 1691q0 -55 -39 -94.5t-95 -39.5t-95 39.5t-39 94.5t39 94.5t95 39.5t95 -39.5t39 -94.5zM538 1691q0 -55 -39 -94.5t-95 -39.5t-95 39.5
t-39 94.5t39 94.5t95 39.5t95 -39.5t39 -94.5z" />
    <glyph glyph-name="afii10051" unicode="&#x402;" horiz-adv-x="1468" 
d="M368 180v996h-151q-75 0 -109 17q-26 13 -42.5 42t-16.5 65t16 65t43 43q32 16 109 16h703q77 0 109 -16q27 -14 43 -43t16 -65t-16.5 -65t-42.5 -42q-34 -17 -109 -17h-273v-279h259q209 0 335.5 -120.5t126.5 -326.5q0 -203 -120 -328.5t-316 -127.5h-9q-39 0 -71 17
q-65 31 -65 111q0 72 49 103q18 11 55 14l7 1q89 6 140.5 60.5t51.5 147.5q0 100 -55.5 154t-150.5 54h-237v-476q0 -53 -3 -75.5t-16 -46.5q-15 -30 -47.5 -48t-72.5 -18q-41 0 -73.5 18t-47.5 48q-13 24 -16 46.5t-3 75.5z" />
    <glyph glyph-name="afii10052" unicode="&#x403;" horiz-adv-x="1121" 
d="M184 58q-12 25 -15.5 48t-3.5 74v1074q0 28 1.5 45t10.5 42.5t27 43.5t43.5 27t42.5 10.5t45 1.5h568q78 0 109 -16q27 -14 43 -43t16 -65t-16 -65t-43 -43q-31 -16 -109 -16h-458v-996q0 -51 -3.5 -74t-15.5 -48q-16 -30 -48.5 -48t-72.5 -18t-72.5 18t-48.5 48z
M520 1554q-59 38 -54 96q2 31 39 90l85 136q33 53 55 69q26 18 57 18q32 0 61 -18q59 -38 54 -96q-2 -31 -39 -90l-85 -136q-33 -53 -55 -69q-25 -18 -57 -18q-33 0 -61 18z" />
    <glyph glyph-name="afii10053" unicode="&#x404;" horiz-adv-x="1233" 
d="M466 312q68 -76 169 -76q144 0 210 147q33 70 69 99q31 24 80 24q59 0 97 -38q37 -37 37 -106q0 -51 -29.5 -118t-92.5 -128q-68 -66 -154 -97t-211 -31q-231 0 -379 150q-42 42 -69.5 90t-43 92.5t-23 114.5t-9 124.5t-1.5 152.5t1.5 152.5t9 124.5t23 114.5t43 92.5
t69.5 90q148 150 379 150q125 0 211 -31t154 -97q63 -61 92.5 -128t29.5 -118q0 -69 -37 -106q-38 -38 -97 -38q-49 0 -80 24q-36 29 -69 99q-66 147 -210 147q-101 0 -169 -76q-36 -41 -50.5 -98t-18.5 -172h267q78 0 109 -16q27 -14 43 -43t16 -65t-16 -65t-43 -43
q-31 -16 -109 -16h-267q3 -122 17.5 -181t51.5 -101z" />
    <glyph glyph-name="afii10054" unicode="&#x405;" horiz-adv-x="1185" 
d="M646 581l-170 25q-181 27 -276 119q-102 99 -102 279q0 193 134 312.5t362 119.5q173 0 322 -69q114 -53 114 -139q0 -46 -32 -86q-33 -38 -83 -38q-42 0 -104 32q-106 56 -225 56q-105 0 -162 -49.5t-57 -122.5q0 -71 41 -109q47 -42 132 -55l167 -24q185 -27 273 -111
q110 -103 110 -301q0 -134 -70.5 -233t-189 -149t-269.5 -50q-114 0 -192 16.5t-162 56.5q-74 35 -108 70.5t-34 92.5q0 53 38 91q31 31 78 31q41 0 113 -38q78 -41 135.5 -57.5t134.5 -16.5q122 0 187.5 47t65.5 132q0 77 -43 119q-37 35 -128 49z" />
    <glyph glyph-name="afii10055" unicode="&#x406;" horiz-adv-x="610" 
d="M445 1244v-1064q0 -51 -3.5 -74t-15.5 -48q-16 -30 -48.5 -48t-72.5 -18t-72.5 18t-48.5 48q-12 25 -15.5 48t-3.5 74v1064q0 51 3.5 74t15.5 48q16 30 48.5 48t72.5 18t72.5 -18t48.5 -48q12 -25 15.5 -48t3.5 -74z" />
    <glyph glyph-name="afii10056" unicode="&#x407;" horiz-adv-x="610" 
d="M647 1691q0 -55 -39.5 -94.5t-94.5 -39.5t-94.5 39.5t-39.5 94.5t39.5 94.5t94.5 39.5t94.5 -39.5t39.5 -94.5zM231 1691q0 -55 -39.5 -94.5t-94.5 -39.5t-94.5 39.5t-39.5 94.5t39.5 94.5t94.5 39.5t94.5 -39.5t39.5 -94.5zM445 1244v-1064q0 -51 -3.5 -74t-15.5 -48
q-16 -30 -48.5 -48t-72.5 -18t-72.5 18t-48.5 48q-12 25 -15.5 48t-3.5 74v1064q0 51 3.5 74t15.5 48q16 30 48.5 48t72.5 18t72.5 -18t48.5 -48q12 -25 15.5 -48t3.5 -74z" />
    <glyph glyph-name="afii10057" unicode="&#x408;" horiz-adv-x="1035" 
d="M389 236q105 0 164.5 62t59.5 182v764q0 51 3.5 74t15.5 48q16 30 48.5 48t72.5 18t72.5 -18t48.5 -48q12 -25 15.5 -48t3.5 -74v-776q0 -114 -41 -207t-111.5 -151.5t-160.5 -90t-191 -31.5q-167 0 -276 79q-63 46 -63 111q0 54 39 90q33 29 76 29q35 0 95 -30
q63 -31 129 -31z" />
    <glyph glyph-name="afii10058" unicode="&#x409;" horiz-adv-x="2102" 
d="M1009 170v1006h-339v-414q0 -178 -18 -308.5t-52 -218t-89.5 -139.5t-124 -74t-160.5 -22q-87 0 -118 16q-27 14 -43 43.5t-16 65.5t16 65t43 43q30 15 66 15q66 0 111.5 39t70 115.5t35 171t10.5 223.5v457q0 28 1.5 45t10.5 42.5t27 43.5t43.5 27t42.5 10.5t45 1.5h548
q28 0 45 -1.5t42.5 -10.5t43.5 -27t27 -43.5t10.5 -42.5t1.5 -45v-366h274q215 0 342.5 -128t127.5 -316t-127.5 -316t-342.5 -128h-384q-28 0 -45 1.5t-42.5 10.5t-43.5 27t-27 43.5t-10.5 42.5t-1.5 45zM1547 640h-258v-392h258q94 0 150 54t56 142t-56 142t-150 54z" />
    <glyph glyph-name="afii10059" unicode="&#x40a;" horiz-adv-x="2018" 
d="M944 1366q16 30 48.5 48t72.5 18t72.5 -18t48.5 -48q12 -25 15.5 -48t3.5 -74v-356h274q215 0 342.5 -128t127.5 -316t-127.5 -316t-342.5 -128h-384q-28 0 -45 1.5t-42.5 10.5t-43.5 27t-27 43.5t-10.5 42.5t-1.5 45v470h-480v-460q0 -51 -3.5 -74t-15.5 -48
q-16 -30 -48.5 -48t-72.5 -18t-72.5 18t-48.5 48q-12 25 -15.5 48t-3.5 74v1064q0 51 3.5 74t15.5 48q16 30 48.5 48t72.5 18t72.5 -18t48.5 -48q12 -25 15.5 -48t3.5 -74v-357h480v357q0 51 3.5 74t15.5 48zM1463 640h-258v-392h258q94 0 150 54t56 142t-56 142t-150 54z
" />
    <glyph glyph-name="afii10060" unicode="&#x40b;" horiz-adv-x="1495" 
d="M921 1176h-275v-280h258q208 0 336 -119.5t128 -314.5v-282q0 -51 -3.5 -74t-15.5 -48q-16 -30 -48.5 -48t-72.5 -18t-72.5 18t-48.5 48q-12 25 -15.5 48t-3.5 74v282q0 87 -56.5 140.5t-149.5 53.5h-236v-476q0 -51 -3.5 -74t-15.5 -48q-16 -30 -48.5 -48t-72.5 -18
t-72.5 18t-48.5 48q-12 25 -15.5 48t-3.5 74v996h-149q-78 0 -109 16q-27 14 -43 43t-16 65t16 65t43 43q31 16 109 16h704q78 0 109 -16q27 -14 43 -43t16 -65t-16 -65t-43 -43q-31 -16 -109 -16z" />
    <glyph glyph-name="afii10061" unicode="&#x40c;" horiz-adv-x="1264" 
d="M445 1244v-382h54l402 486q40 48 65.5 66t61.5 18q47 0 85 -32q50 -41 50 -99q0 -28 -13 -52.5t-49 -67.5l-374 -437l413 -501q36 -43 49 -67.5t13 -52.5q0 -58 -50 -99q-38 -32 -85 -32q-36 0 -61.5 18t-65.5 66l-438 526h-57v-422q0 -51 -3.5 -74t-15.5 -48
q-16 -30 -48.5 -48t-72.5 -18t-72.5 18t-48.5 48q-12 25 -15.5 48t-3.5 74v1064q0 51 3.5 74t15.5 48q16 30 48.5 48t72.5 18t72.5 -18t48.5 -48q12 -25 15.5 -48t3.5 -74zM609 1554q-59 38 -54 96q2 31 39 90l85 136q33 53 55 69q26 18 57 18q33 0 61 -18q59 -38 54 -96
q-2 -31 -39 -90l-85 -136q-33 -53 -55 -69q-25 -18 -57 -18t-61 18z" />
    <glyph glyph-name="uni040D" unicode="&#x40d;" horiz-adv-x="1412" 
d="M445 523l499 784q43 68 79.5 96.5t86.5 28.5q60 0 98 -40q23 -24 31 -54t8 -80v-1078q0 -51 -3.5 -74t-15.5 -48q-16 -30 -48.5 -48t-72.5 -18t-72.5 18t-48.5 48q-12 25 -15.5 48t-3.5 74v721l-499 -784q-43 -68 -79.5 -96.5t-86.5 -28.5q-60 0 -98 40q-23 24 -31 54
t-8 80v1078q0 51 3.5 74t15.5 48q16 30 48.5 48t72.5 18t72.5 -18t48.5 -48q12 -25 15.5 -48t3.5 -74v-721zM742 1553q-28 -18 -61 -18q-31 0 -57 18q-22 16 -55 69l-85 136q-37 59 -39 90q-5 58 54 96q28 18 61 18q32 0 57 -18q22 -16 55 -69l85 -136q37 -59 39 -90
q5 -58 -54 -96z" />
    <glyph glyph-name="afii10062" unicode="&#x40e;" horiz-adv-x="1062" 
d="M305 0h-31q-78 0 -109 16q-27 14 -43 43t-16 65t16 65t43 43q31 16 108 16q30 0 54.5 15.5t37 33.5t30.5 49l-332 864q-16 42 -22 67.5t-0.5 55.5t29.5 56q40 43 100 43q45 0 77 -26q18 -15 29.5 -35.5t29.5 -69.5l228 -598l222 598q18 49 29.5 69.5t29.5 35.5
q32 26 77 26q60 0 100 -43q24 -26 29.5 -56t-0.5 -55t-22 -68l-347 -928q-106 -282 -347 -282zM531 1552q-79 0 -139 23t-119 74q-54 46 -56 94q0 35 25 66q30 34 71 34q29 0 62 -27q78 -64 156 -64t156 64q33 27 62 27q41 0 71 -34q25 -31 25 -66q-2 -48 -56 -94
q-59 -51 -119 -74t-139 -23z" />
    <glyph glyph-name="afii10145" unicode="&#x40f;" horiz-adv-x="1372" 
d="M549 -140v140h-214q-28 0 -45 1.5t-42.5 10.5t-43.5 27t-27 43.5t-10.5 42.5t-1.5 45v1074q0 51 3.5 74t15.5 48q16 30 48.5 48t72.5 18t72.5 -18t48.5 -48q12 -25 15.5 -48t3.5 -74v-996h482v996q0 51 3.5 74t15.5 48q16 30 48.5 48t72.5 18t72.5 -18t48.5 -48
q12 -25 15.5 -48t3.5 -74v-1074q0 -28 -1.5 -45t-10.5 -42.5t-27 -43.5t-43.5 -27t-42.5 -10.5t-45 -1.5h-214v-140q0 -50 -3.5 -72.5t-15.5 -46.5q-15 -30 -46.5 -47.5t-71.5 -17.5t-71.5 17.5t-46.5 47.5q-12 24 -15.5 46.5t-3.5 72.5z" />
    <glyph glyph-name="afii10017" unicode="&#x410;" horiz-adv-x="1272" 
d="M793 1304l411 -1090q16 -43 22 -68t0.5 -55t-29.5 -56q-40 -43 -100 -43q-45 0 -77 26q-18 15 -29.5 35.5t-29.5 69.5l-47 129h-556l-47 -129q-18 -49 -29.5 -69.5t-29.5 -35.5q-32 -26 -77 -26q-60 0 -100 43q-24 26 -29.5 56t0.5 55t22 68l411 1090q26 67 57 94
q38 34 100 34t100 -34q31 -27 57 -94zM636 1003l-191 -517h382z" />
    <glyph glyph-name="afii10018" unicode="&#x411;" horiz-adv-x="1258" 
d="M445 1176v-288h274q215 0 342.5 -128t127.5 -316t-127.5 -316t-342.5 -128h-384q-28 0 -45 1.5t-42.5 10.5t-43.5 27t-27 43.5t-10.5 42.5t-1.5 45v1084q0 28 1.5 45t10.5 42.5t27 43.5t43.5 27t42.5 10.5t45 1.5h614q78 0 109 -16q27 -14 43 -43t16 -65t-16 -65t-43 -43
q-31 -16 -109 -16h-504zM703 640h-258v-392h258q94 0 150 54t56 142t-56 142t-150 54z" />
    <glyph glyph-name="afii10019" unicode="&#x412;" horiz-adv-x="1320" 
d="M764 0h-429q-28 0 -45 1.5t-42.5 10.5t-43.5 27t-27 43.5t-10.5 42.5t-1.5 45v1084q0 28 1.5 45t10.5 42.5t27 43.5t43.5 27t42.5 10.5t45 1.5h405q208 0 325 -107.5t117 -292.5q0 -107 -55.5 -185t-122.5 -109q37 -17 68.5 -41t62.5 -61.5t49 -93.5t18 -124
q0 -195 -120.5 -302.5t-317.5 -107.5zM445 248h291q90 0 138 50t48 126t-48 125t-138 49h-291v-350zM718 1176h-273v-328h273q87 0 135.5 44.5t48.5 119.5t-48.5 119.5t-135.5 44.5z" />
    <glyph glyph-name="afii10020" unicode="&#x413;" horiz-adv-x="1121" 
d="M184 58q-12 25 -15.5 48t-3.5 74v1074q0 28 1.5 45t10.5 42.5t27 43.5t43.5 27t42.5 10.5t45 1.5h568q78 0 109 -16q27 -14 43 -43t16 -65t-16 -65t-43 -43q-31 -16 -109 -16h-458v-996q0 -51 -3.5 -74t-15.5 -48q-16 -30 -48.5 -48t-72.5 -18t-72.5 18t-48.5 48z" />
    </font>
</defs>
</svg>
