<?xml version="1.0" standalone="no"?>
<!DOCTYPE svg PUBLIC "-//W3C//DTD SVG 1.1//EN" "http://www.w3.org/Graphics/SVG/1.1/DTD/svg11.dtd" >
<svg>
<metadata>
Created by FontForge 20120731 at Mon Aug  1 23:31:06 2016
 By ,,,
2009  published by FSI FontShop International GmbH
</metadata>
<defs>
<font id="DINRoundPro" horiz-adv-x="1044" >
  <font-face 
    font-family="DINRoundPro"
    font-weight="400"
    font-stretch="normal"
    units-per-em="2000"
    panose-1="2 11 5 4 2 1 1 2 1 2"
    ascent="1528"
    descent="-472"
    x-height="984"
    cap-height="1424"
    bbox="-208.062 -463 2354 2051.24"
    underline-thickness="112"
    underline-position="-170"
    unicode-range="U+000D-FB02"
  />
<missing-glyph horiz-adv-x="1139" 
d="M274 1424h591q51 0 72 -21t21 -72v-1238q0 -51 -21 -72t-72 -21h-591q-51 0 -72 21t-21 72v1238q0 51 21 72t72 21zM335 1288v-1152h469v1152h-469z" />
    <glyph glyph-name=".notdef" horiz-adv-x="1139" 
d="M274 1424h591q51 0 72 -21t21 -72v-1238q0 -51 -21 -72t-72 -21h-591q-51 0 -72 21t-21 72v1238q0 51 21 72t72 21zM335 1288v-1152h469v1152h-469z" />
    <glyph glyph-name=".null" horiz-adv-x="0" 
 />
    <glyph glyph-name=".null" horiz-adv-x="0" 
 />
    <glyph glyph-name="nonmarkingreturn" horiz-adv-x="666" 
 />
    <glyph glyph-name="CR" unicode="&#xd;" horiz-adv-x="498" 
 />
    <glyph glyph-name="space" unicode=" " horiz-adv-x="498" 
 />
    <glyph glyph-name="exclam" unicode="!" horiz-adv-x="633" 
d="M270 1328q0 50 14 72q20 32 63 32t63 -32q14 -22 14 -72v-831q0 -50 -14 -72q-20 -32 -63 -32t-63 32q-14 22 -14 72v831zM247 94q0 42 29 71.5t71 29.5t71.5 -29.5t29.5 -71.5t-29.5 -71t-71.5 -29t-71 29t-29 71z" />
    <glyph glyph-name="quotedbl" unicode="&#x22;" horiz-adv-x="790" 
d="M298 1338v-215q0 -46 -13 -67q-19 -31 -60 -31t-60 31q-13 21 -13 67v215q0 46 13 67q19 31 60 31t60 -31q13 -21 13 -67zM638 1338v-215q0 -46 -13 -67q-19 -31 -60 -31t-60 31q-13 21 -13 67v215q0 46 13 67q19 31 60 31t60 -31q13 -21 13 -67z" />
    <glyph glyph-name="numbersign" unicode="#" horiz-adv-x="1328" 
d="M869 997l71 357q9 47 29 65q17 16 43 16q31 0 52 -21q15 -15 17.5 -34.5t-4.5 -52.5l-66 -330h110q44 0 61 -11q28 -19 28 -54t-28 -54q-17 -11 -61 -11h-135l-57 -287h130q44 0 61 -11q28 -19 28 -54t-28 -54q-17 -11 -61 -11h-156l-75 -377q-9 -47 -29 -65
q-17 -16 -43 -16q-31 0 -52 21q-15 15 -17.5 34.5t4.5 52.5l69 350h-301l-75 -377q-9 -47 -29 -65q-17 -16 -43 -16q-31 0 -52 21q-15 15 -17.5 34.5t4.5 52.5l69 350h-109q-44 0 -61 11q-28 19 -28 54t28 54q17 11 61 11h135l57 287h-130q-44 0 -61 11q-28 19 -28 54t28 54
q17 11 61 11h156l71 357q9 47 29 65q17 16 43 16q31 0 52 -21q15 -15 17.5 -34.5t-4.5 -52.5l-66 -330h302zM542 867l-57 -287h301l57 287h-301z" />
    <glyph glyph-name="dollar" unicode="$" horiz-adv-x="1177" 
d="M661 1482v-50q72 -7 132 -29t135 -67q59 -36 59 -78q0 -27 -17 -45q-19 -22 -48 -22q-26 0 -70 28q-102 69 -202 81v-522l35 -5q100 -16 158 -38t103 -61q119 -100 119 -282q0 -166 -109 -272t-295 -127v-51q0 -46 -13 -67q-19 -31 -60 -31t-60 31q-13 21 -13 67v47
q-105 5 -183 32.5t-165 86.5q-64 42 -64 87q0 31 21 52q19 19 47 19q30 0 71 -32q69 -53 134.5 -78.5t149.5 -30.5v530l-34 6q-86 13 -146 37.5t-113 71.5q-110 97 -110 265t104.5 274.5t287.5 123.5v49q0 46 13 67q19 31 60 31t60 -31q13 -21 13 -67zM659 635l-9 1v-508
q125 16 194.5 83t69.5 176q0 118 -69 179q-34 30 -71 43.5t-115 25.5zM337 875q38 -33 79.5 -50.5t109.5 -27.5v505q-120 -12 -187.5 -82t-67.5 -178q0 -111 66 -167z" />
    <glyph glyph-name="percent" unicode="%" horiz-adv-x="1667" 
d="M670 958q0 -123 -75.5 -196.5t-194.5 -73.5t-195 73.5t-76 196.5v208q0 123 76 196.5t195 73.5t194.5 -73.5t75.5 -196.5v-208zM244 1161v-198q0 -174 156 -174q155 0 155 174v198q0 174 -155 174q-156 0 -156 -174zM1538 258q0 -123 -75.5 -196.5t-194.5 -73.5
t-195 73.5t-76 196.5v208q0 123 76 196.5t195 73.5t194.5 -73.5t75.5 -196.5v-208zM1112 461v-198q0 -174 156 -174q155 0 155 174v198q0 174 -155 174q-156 0 -156 -174zM1206 1335l-646 -1294q-15 -31 -32 -42q-11 -7 -25 -7q-12 0 -24 6q-27 14 -29 41q-1 19 14 50
l646 1294q16 31 32 42q11 7 25 7q12 0 24 -6q27 -14 29 -41q1 -19 -14 -50z" />
    <glyph glyph-name="ampersand" unicode="&#x26;" horiz-adv-x="1446" 
d="M939 259l-394 473q-49 -33 -78 -54.5t-64.5 -54t-55 -62t-33 -69.5t-13.5 -85q0 -127 84.5 -207t217.5 -80q181 0 336 139zM1124 262l109 -130q34 -41 34 -67q0 -33 -26 -55q-23 -18 -49 -18q-33 0 -71 47l-97 117q-180 -168 -421 -168q-204 0 -326 112.5t-122 298.5
q0 61 17.5 115t42.5 93.5t69.5 82t81.5 70t97 67.5q-36 43 -55.5 68.5t-46.5 69t-39.5 86.5t-12.5 88q0 127 89.5 212t224.5 85q132 0 220.5 -85.5t88.5 -212.5q0 -148 -167 -261l-97 -66l364 -439q38 57 54.5 114t23.5 150q4 47 16 65q18 28 56 28q39 0 57 -29
q13 -19 13 -62q0 -95 -34 -203q-31 -97 -94 -173zM586 906l36 24q87 56 127.5 101.5t40.5 106.5q0 73 -47.5 121t-119.5 48t-119 -47t-47 -118q0 -50 27 -99.5t102 -136.5z" />
    <glyph glyph-name="quotesingle" unicode="'" horiz-adv-x="450" 
d="M298 1338v-215q0 -46 -13 -67q-19 -31 -60 -31t-60 31q-13 21 -13 67v215q0 46 13 67q19 31 60 31t60 -31q13 -21 13 -67z" />
    <glyph glyph-name="parenleft" unicode="(" horiz-adv-x="595" 
d="M229 -12q-39 78 -39 201v1047q0 123 39 201q33 66 99 132q40 40 70 40q31 0 51 -20q19 -19 19 -46q0 -33 -40 -73q-44 -44 -64 -87q-28 -60 -28 -160v-1021q0 -100 28 -160q20 -43 64 -87q40 -40 40 -73q0 -27 -19 -46q-20 -20 -51 -20q-30 0 -70 40q-66 66 -99 132z" />
    <glyph glyph-name="parenright" unicode=")" horiz-adv-x="595" 
d="M366 -12q-33 -66 -99 -132q-40 -40 -70 -40q-31 0 -51 20q-19 19 -19 46q0 33 40 73q44 44 64 87q28 60 28 160v1021q0 100 -28 160q-20 43 -64 87q-40 40 -40 73q0 27 19 46q20 20 51 20q30 0 70 -40q66 -66 99 -132q39 -78 39 -201v-1047q0 -123 -39 -201z" />
    <glyph glyph-name="asterisk" unicode="*" horiz-adv-x="952" 
d="M253 1274l169 -102v196q0 36 10 51q14 23 44 23t44 -23q10 -15 10 -51v-196l169 102q29 17 48 17q28 0 44 -28q15 -25 4 -48q-8 -17 -39 -36l-174 -105l174 -104q31 -19 39 -36q11 -23 -4 -48q-16 -28 -44 -28q-19 0 -48 17l-169 101v-195q0 -36 -10 -51q-14 -23 -44 -23
t-44 23q-10 15 -10 51v195l-169 -101q-29 -17 -48 -17q-28 0 -44 28q-15 25 -4 48q8 17 39 36l174 104l-174 105q-31 19 -39 36q-11 23 4 48q16 28 44 28q19 0 48 -17z" />
    <glyph glyph-name="plus" unicode="+" 
d="M457 604v271q0 44 11 61q19 28 54 28t54 -28q11 -17 11 -61v-271h271q44 0 61 -11q28 -19 28 -54t-28 -54q-17 -11 -61 -11h-271v-271q0 -44 -11 -61q-19 -28 -54 -28t-54 28q-11 17 -11 61v271h-271q-44 0 -61 11q-28 19 -28 54t28 54q17 11 61 11h271z" />
    <glyph glyph-name="comma" unicode="," horiz-adv-x="477" 
d="M87 -119l89 267q14 43 33 59q17 15 42 15q24 0 45.5 -15t26.5 -37q5 -25 -9 -68l-89 -267q-14 -43 -33 -59q-16 -15 -42 -15q-24 0 -45.5 15t-26.5 37q-5 25 9 68z" />
    <glyph glyph-name="hyphen" unicode="-" horiz-adv-x="852" 
d="M708 539q0 -35 -28 -54q-17 -11 -61 -11h-386q-44 0 -61 11q-28 19 -28 54t28 54q17 11 61 11h386q44 0 61 -11q28 -19 28 -54z" />
    <glyph glyph-name="period" unicode="." horiz-adv-x="540" 
d="M156 108q0 47 33.5 80.5t80.5 33.5t80.5 -33.5t33.5 -80.5t-33.5 -80.5t-80.5 -33.5t-80.5 33.5t-33.5 80.5z" />
    <glyph glyph-name="slash" unicode="/" horiz-adv-x="708" 
d="M679 1466l-518 -1552q-11 -34 -27 -52t-45 -18q-21 0 -40 12t-26 31q-9 26 6 71l518 1552q11 34 27 52t45 18q21 0 40 -12t26 -31q9 -26 -6 -71z" />
    <glyph glyph-name="zero" unicode="0" 
d="M522 -12q-169 0 -279.5 109t-110.5 283v664q0 174 110.5 283t279.5 109t279.5 -109t110.5 -283v-664q0 -174 -110.5 -283t-279.5 -109zM522 1306q-115 0 -179.5 -72.5t-64.5 -188.5v-666q0 -116 64.5 -188.5t179.5 -72.5t179.5 72.5t64.5 188.5v666q0 116 -64.5 188.5
t-179.5 72.5z" />
    <glyph glyph-name="one" unicode="1" 
d="M516 1215l-168 -167q-35 -35 -61 -35q-28 0 -49 21q-20 20 -20 47q0 17 8 30.5t31 36.5l244 244q40 40 82 40q33 0 57 -22q22 -21 22 -82v-1238q0 -46 -13 -67q-19 -31 -60 -31t-60 31q-13 21 -13 67v1125z" />
    <glyph glyph-name="two" unicode="2" 
d="M126 70q0 31 44 88l511 661q49 63 71.5 121t22.5 130q0 107 -64 171.5t-179 64.5q-91 0 -158 -46.5t-88 -144.5q-9 -42 -29 -66q-16 -21 -49 -21q-34 0 -52 24q-16 21 -16 52q0 49 28 114.5t79 114.5q109 103 284 103q179 0 284.5 -97t105.5 -268q0 -94 -30.5 -165.5
t-101.5 -163.5l-473 -612h524q42 0 61 -12q28 -17 28 -53q0 -35 -28 -54q-19 -11 -61 -11h-601q-28 0 -41 1t-28.5 6t-25.5 15q-18 18 -18 48z" />
    <glyph glyph-name="three" unicode="3" horiz-adv-x="1045" 
d="M423 730q0 33 28 52q18 11 53 11q122 1 185.5 69.5t63.5 189.5q0 118 -69.5 186t-179.5 68q-99 0 -157.5 -43t-79.5 -137q-10 -43 -31 -63q-18 -16 -45 -16q-46 0 -59 44q-8 27 -5 58q5 49 31 100t64 87q103 100 282 100q173 0 284.5 -103t111.5 -277q0 -234 -198 -320
q104 -35 162 -121.5t58 -226.5q0 -120 -58 -212t-153.5 -140t-211.5 -48q-110 0 -182 25.5t-129 80.5q-93 90 -93 211q0 45 21 66q19 21 51 21q28 0 44 -16q21 -20 28 -59q18 -104 82.5 -151.5t176.5 -47.5q118 0 198 75t80 199q0 130 -69.5 202t-202.5 73q-35 0 -53 11
q-28 19 -28 52z" />
    <glyph glyph-name="four" unicode="4" 
d="M633 230h-479q-46 0 -67 15q-27 19 -27 54q0 22 18 58l509 1013q15 30 31 46t41 16q26 0 47 -18.5t21 -44.5q0 -24 -18 -60l-475 -949h399v316q0 46 13 67q19 31 60 31t60 -31q13 -21 13 -67v-316h108q44 0 61 -11q28 -19 28 -54t-28 -54q-17 -11 -61 -11h-108v-140
q0 -46 -13 -67q-19 -31 -60 -31t-60 31q-13 21 -13 67v140z" />
    <glyph glyph-name="five" unicode="5" 
d="M901 1359q0 -35 -28 -54q-17 -11 -61 -11h-509v-446q94 96 256 96q156 0 247 -89q121 -121 121 -384q0 -126 -23 -216.5t-93 -160.5q-106 -106 -286 -106q-181 0 -285 98q-43 42 -71 100t-28 113q0 35 19 57t51 22q30 0 47 -17q19 -17 32 -71q43 -172 235 -172
q114 0 178 64q35 35 53 88t21.5 94.5t3.5 106.5q0 57 -5 102.5t-21 93t-42 79t-70.5 51.5t-104.5 20q-76 0 -129.5 -24t-93.5 -81q-16 -22 -30 -32q-15 -11 -42 -11q-31 0 -50 19q-20 19 -20 63v585q0 48 20 68t68 20h551q44 0 61 -11q28 -19 28 -54z" />
    <glyph glyph-name="six" unicode="6" 
d="M684 1369q0 -24 -18 -60l-260 -521q63 26 144 26q166 0 268.5 -113.5t102.5 -290.5q0 -185 -107.5 -303.5t-287.5 -118.5q-182 0 -290 113t-108 298q0 138 89 316l327 655q15 30 31 46t41 16q26 0 47 -18.5t21 -44.5zM274 404q0 -131 68 -208.5t182 -77.5t183 77.5
t69 208.5q0 123 -67 204t-185 81q-114 0 -182 -76.5t-68 -208.5z" />
    <glyph glyph-name="seven" unicode="7" 
d="M348 110l443 1184h-494v-133q0 -46 -13 -67q-19 -31 -60 -31t-60 31q-13 21 -13 67v175q0 48 20 68t68 20h605q64 0 87 -21q20 -19 20 -50q0 -21 -19 -72l-456 -1219q-17 -45 -34 -58q-16 -12 -36 -12q-25 1 -45.5 15t-24.5 37t12 66z" />
    <glyph glyph-name="eight" unicode="8" 
d="M522 -12q-180 0 -300.5 114t-120.5 291q0 119 58.5 206t156.5 140q-188 106 -188 315q0 167 111.5 274.5t282.5 107.5t282.5 -107.5t111.5 -274.5q0 -209 -188 -315q98 -53 156.5 -140t58.5 -206q0 -177 -120.5 -291t-300.5 -114zM522 1306q-109 0 -178.5 -72t-69.5 -182
t69.5 -182t178.5 -72t178.5 72t69.5 182t-69.5 182t-178.5 72zM522 672q-117 0 -196 -79.5t-79 -197.5q0 -119 79 -198t196 -79t196 79t79 198q0 118 -79 197.5t-196 79.5z" />
    <glyph glyph-name="nine" unicode="9" 
d="M360 55q0 24 18 60l260 521q-63 -26 -144 -26q-166 0 -268.5 113.5t-102.5 290.5q0 185 107.5 303.5t287.5 118.5q182 0 290 -113t108 -298q0 -138 -89 -316l-327 -655q-15 -30 -31 -46t-41 -16q-26 0 -47 18.5t-21 44.5zM770 1020q0 131 -68 208.5t-182 77.5t-183 -77.5
t-69 -208.5q0 -123 67 -204t185 -81q114 0 182 76.5t68 208.5z" />
    <glyph glyph-name="colon" unicode=":" horiz-adv-x="594" 
d="M210 108q0 47 33.5 80.5t80.5 33.5t80.5 -33.5t33.5 -80.5t-33.5 -80.5t-80.5 -33.5t-80.5 33.5t-33.5 80.5zM210 689q0 47 33.5 80.5t80.5 33.5t80.5 -33.5t33.5 -80.5t-33.5 -80.5t-80.5 -33.5t-80.5 33.5t-33.5 80.5z" />
    <glyph glyph-name="semicolon" unicode=";" horiz-adv-x="594" 
d="M189 -119l89 267q14 43 33 59q17 15 42 15q24 0 45.5 -15t26.5 -37q5 -25 -9 -68l-89 -267q-14 -43 -33 -59q-16 -15 -42 -15q-24 0 -45.5 15t-26.5 37q-5 25 9 68zM240 689q0 47 33.5 80.5t80.5 33.5t80.5 -33.5t33.5 -80.5t-33.5 -80.5t-80.5 -33.5t-80.5 33.5
t-33.5 80.5z" />
    <glyph glyph-name="less" unicode="&#x3c;" 
d="M270 644l464 232q36 18 60 18q26 0 44.5 -21t18.5 -47q0 -25 -15.5 -41t-46.5 -31l-429 -215l429 -215q31 -15 46.5 -31t15.5 -41q0 -26 -18.5 -47t-44.5 -21q-24 0 -60 18l-464 232q-24 12 -37.5 20t-28.5 20.5t-21.5 28.5t-6.5 36q0 38 23 59.5t71 45.5z" />
    <glyph glyph-name="equal" unicode="=" 
d="M947 709q0 -35 -28 -54q-17 -11 -61 -11h-672q-44 0 -61 11q-28 19 -28 54t28 54q17 11 61 11h672q44 0 61 -11q28 -19 28 -54zM947 366q0 -35 -28 -54q-17 -11 -61 -11h-672q-44 0 -61 11q-28 19 -28 54t28 54q17 11 61 11h672q44 0 61 -11q28 -19 28 -54z" />
    <glyph glyph-name="greater" unicode="&#x3e;" 
d="M310 875l464 -232q24 -12 37.5 -20t28.5 -20.5t21.5 -28.5t6.5 -36q0 -38 -23 -59.5t-71 -45.5l-464 -232q-36 -18 -60 -18q-26 0 -44.5 21t-18.5 47q0 25 15.5 41t46.5 31l429 215l-429 215q-31 15 -46.5 31t-15.5 41q0 26 18.5 47t44.5 21q24 0 60 -18z" />
    <glyph glyph-name="question" unicode="?" horiz-adv-x="995" 
d="M440 94q0 42 29 71.5t71 29.5t71.5 -29.5t29.5 -71.5t-29.5 -71t-71.5 -29t-71 29t-29 71zM658 608q-38 -56 -43 -143q-2 -42 -22 -62t-52 -20q-38 0 -58 28q-15 22 -15 60q0 64 12 104.5t50 94.5l163 232q65 92 65 172q0 100 -65.5 167t-164.5 67q-101 0 -165 -63
q-54 -52 -68 -143q-5 -35 -19 -53q-18 -23 -55 -23q-33 0 -51 22q-16 20 -16 56q0 56 28 118.5t74 109.5q48 49 118.5 76.5t152.5 27.5q161 0 269 -102t108 -260q0 -67 -22.5 -121t-68.5 -121z" />
    <glyph glyph-name="at" unicode="@" horiz-adv-x="1427" 
d="M657 477q0 -62 4.5 -110t20 -98.5t41 -83t70.5 -53.5t106 -21t105.5 21t70.5 53.5t41 83t20 98.5t5 110t-5 110t-20 98.5t-41 83t-70.5 53.5t-105.5 21t-106 -21t-70.5 -53.5t-41 -83t-20 -98.5t-4.5 -110zM874 966q169 0 267 -123v144q0 82 -18.5 135t-61.5 96
q-42 42 -92.5 60t-122.5 18h-265q-72 0 -122.5 -18t-92.5 -60q-43 -43 -61.5 -96t-18.5 -135v-664q0 -84 14.5 -120t58.5 -83q34 -37 34 -63q0 -33 -23 -53q-21 -20 -50 -20q-19 0 -34.5 10.5t-36.5 33.5q-57 59 -82 120.5t-25 170.5v673q0 209 111 320q114 114 308 114h305
q194 0 308 -114q111 -111 111 -320v-902q0 -46 -13 -67q-19 -31 -60 -31t-60 31q-13 21 -13 67v18q-50 -62 -113 -91t-152 -29q-176 0 -271 119q-50 62 -69.5 146.5t-19.5 223.5t19.5 223.5t69.5 146.5q95 119 271 119z" />
    <glyph glyph-name="A" unicode="A" horiz-adv-x="1222" 
d="M62 118l462 1234q13 35 30 55q23 25 57 25t57 -25q17 -21 30 -55l462 -1234q8 -23 11.5 -38t-0.5 -33t-18 -32q-23 -23 -56 -23q-21 0 -39 13q-20 16 -37 61l-94 256h-633l-94 -256q-17 -45 -37 -61q-18 -13 -39 -13q-33 0 -56 23q-14 14 -17.5 32.5t0 33t11.5 37.5z
M611 1187l-269 -733h537z" />
    <glyph glyph-name="B" unicode="B" horiz-adv-x="1340" 
d="M299 0q-51 0 -72 21t-21 72v1238q0 51 21 72t72 21h445q190 0 306 -102t116 -278q0 -110 -59.5 -194t-152.5 -118q107 -39 170.5 -126.5t63.5 -211.5q0 -189 -115.5 -291.5t-310.5 -102.5h-463zM748 658h-388v-522h388q132 0 209 71t77 191t-77 190t-209 70zM732 1288
h-372v-494h372q125 0 202.5 63t77.5 185t-77.5 184t-202.5 62z" />
    <glyph glyph-name="C" unicode="C" horiz-adv-x="1276" 
d="M152 712q0 138 3.5 212.5t18.5 148.5t43.5 123t79.5 100q138 140 354 140q242 0 382 -171q42 -51 66.5 -110t24.5 -97q0 -36 -20 -56t-51 -20q-29 0 -47 16q-21 18 -36 64q-39 114 -121 176t-199 62q-145 0 -244 -102q-65 -66 -82.5 -161t-17.5 -325t17.5 -325t82.5 -161
q99 -102 244 -102q117 0 199 62t121 176q15 46 36 64q18 16 47 16q31 0 51 -20t20 -56q0 -38 -24.5 -97t-66.5 -110q-140 -171 -382 -171q-216 0 -354 140q-51 51 -79.5 100t-43.5 123t-18.5 148.5t-3.5 212.5z" />
    <glyph glyph-name="D" unicode="D" horiz-adv-x="1350" 
d="M299 0q-51 0 -72 21t-21 72v1238q0 51 21 72t72 21h397q121 0 212.5 -36t163.5 -114q31 -33 53 -72t35.5 -88t21.5 -88.5t11.5 -103t4 -101t0.5 -109.5t-0.5 -109.5t-4 -101t-11.5 -103t-21.5 -88.5t-35.5 -88t-53 -72q-72 -78 -163.5 -114t-212.5 -36h-397zM670 1288
h-310v-1152h310q187 0 281 105q32 36 52 84.5t28.5 117.5t10.5 123t2 146t-2 146t-10.5 123t-28.5 117.5t-52 84.5q-94 105 -281 105z" />
    <glyph glyph-name="E" unicode="E" horiz-adv-x="1200" 
d="M299 1424h704q46 0 66 -12q29 -19 29 -56t-29 -56q-20 -12 -66 -12h-643v-502h534q46 0 66 -12q29 -19 29 -56t-29 -56q-20 -12 -66 -12h-534v-514h643q46 0 66 -12q29 -19 29 -56t-29 -56q-20 -12 -66 -12h-704q-51 0 -72 21t-21 72v1238q0 51 21 72t72 21z" />
    <glyph glyph-name="F" unicode="F" horiz-adv-x="1160" 
d="M360 1288v-524h535q46 0 66 -12q29 -19 29 -56t-29 -56q-20 -12 -66 -12h-535v-532q0 -50 -14 -72q-20 -32 -63 -32t-63 32q-14 22 -14 72v1235q0 51 21 72t72 21h704q46 0 66 -12q29 -19 29 -56t-29 -56q-20 -12 -66 -12h-643z" />
    <glyph glyph-name="G" unicode="G" horiz-adv-x="1300" 
d="M306 712q0 -231 18 -325.5t82 -160.5q100 -102 246 -102q148 0 247 99q59 60 78.5 140.5t19.5 238.5h-263q-46 0 -66 12q-29 19 -29 56t29 56q20 12 66 12h319q51 0 72 -21t21 -72v-26q0 -202 -27.5 -303.5t-113.5 -186.5q-141 -141 -353 -141q-213 0 -355 140
q-41 41 -67.5 83t-42.5 84.5t-23.5 110t-9.5 131t-2 175.5q0 138 3.5 212.5t18.5 148.5t43.5 123t79.5 100q138 140 354 140q242 0 382 -171q42 -51 66.5 -110t24.5 -97q0 -36 -20 -56t-51 -20q-29 0 -47 16q-21 18 -36 64q-39 114 -121 176t-199 62q-145 0 -244 -102
q-65 -66 -82.5 -161t-17.5 -325z" />
    <glyph glyph-name="H" unicode="H" horiz-adv-x="1392" 
d="M1186 96q0 -50 -14 -72q-20 -32 -63 -32t-63 32q-14 22 -14 72v554h-672v-554q0 -50 -14 -72q-20 -32 -63 -32t-63 32q-14 22 -14 72v1232q0 50 14 72q20 32 63 32t63 -32q14 -22 14 -72v-542h672v542q0 50 14 72q20 32 63 32t63 -32q14 -22 14 -72v-1232z" />
    <glyph glyph-name="I" unicode="I" horiz-adv-x="566" 
d="M360 1328v-1232q0 -50 -14 -72q-20 -32 -63 -32t-63 32q-14 22 -14 72v1232q0 50 14 72q20 32 63 32t63 -32q14 -22 14 -72z" />
    <glyph glyph-name="J" unicode="J" horiz-adv-x="993" 
d="M362 124q140 0 216 85.5t76 242.5v876q0 50 14 72q20 32 63 32t63 -32q14 -22 14 -72v-896q0 -203 -124 -323.5t-322 -120.5q-159 0 -271 83q-40 30 -40 66q0 29 18 49q20 21 47 21q28 0 69 -29q76 -54 177 -54z" />
    <glyph glyph-name="K" unicode="K" horiz-adv-x="1299" 
d="M360 1328v-709l631 766q38 47 71 47q26 0 49 -18q26 -22 26 -55q0 -26 -34 -67l-338 -411l427 -750q23 -41 23 -69q0 -37 -39 -59q-19 -11 -39 -11q-26 0 -43 16t-35 47l-401 711l-298 -358v-312q0 -50 -14 -72q-20 -32 -63 -32t-63 32q-14 22 -14 72v1232q0 50 14 72
q20 32 63 32t63 -32q14 -22 14 -72z" />
    <glyph glyph-name="L" unicode="L" horiz-adv-x="1144" 
d="M299 0q-51 0 -72 21t-21 72v1235q0 50 14 72q20 32 63 32t63 -32q14 -22 14 -72v-1192h638q46 0 66 -12q29 -19 29 -56t-29 -56q-20 -12 -66 -12h-699z" />
    <glyph glyph-name="M" unicode="M" horiz-adv-x="1632" 
d="M816 212q-32 0 -52 17.5t-37 53.5l-367 790v-977q0 -50 -14 -72q-20 -32 -63 -32t-63 32q-14 22 -14 72v1238q0 51 24 75q22 23 55 23q27 0 46 -12q22 -13 41 -53l444 -958l444 958q19 40 41 53q19 12 46 12q33 0 55 -23q24 -24 24 -75v-1238q0 -50 -14 -72
q-20 -32 -63 -32t-63 32q-14 22 -14 72v977l-367 -790q-17 -36 -37 -53.5t-52 -17.5z" />
    <glyph glyph-name="N" unicode="N" horiz-adv-x="1466" 
d="M1260 1328v-1235q0 -53 -24 -77t-58 -24q-46 0 -87 61l-731 1080v-1037q0 -50 -14 -72q-20 -32 -63 -32t-63 32q-14 22 -14 72v1235q0 53 24 77q22 24 58 24q26 0 45.5 -14.5t41.5 -46.5l731 -1080v1037q0 50 14 72q20 32 63 32t63 -32q14 -22 14 -72z" />
    <glyph glyph-name="O" unicode="O" horiz-adv-x="1304" 
d="M652 1436q214 0 356 -140q41 -41 67 -83t42 -85t23.5 -110t9.5 -130.5t2 -175.5t-2 -175.5t-9.5 -130.5t-23.5 -110t-42 -85t-67 -83q-142 -140 -356 -140t-356 140q-41 41 -67 83t-42 85t-23.5 110t-9.5 130.5t-2 175.5t2 175.5t9.5 130.5t23.5 110t42 85t67 83
q142 140 356 140zM652 124q147 0 246 102q64 66 82 160.5t18 325.5t-18 325.5t-82 160.5q-99 102 -246 102t-246 -102q-64 -66 -82 -160.5t-18 -325.5t18 -325.5t82 -160.5q99 -102 246 -102z" />
    <glyph glyph-name="P" unicode="P" horiz-adv-x="1265" 
d="M206 1331q0 51 21 72t72 21h439q196 0 319 -114.5t123 -303.5t-123 -304.5t-319 -115.5h-378v-490q0 -50 -14 -72q-20 -32 -63 -32t-63 32q-14 22 -14 72v1235zM726 1288h-366v-566h366q137 0 218 73t81 211q0 137 -80.5 209.5t-218.5 72.5z" />
    <glyph glyph-name="Q" unicode="Q" horiz-adv-x="1304" 
d="M652 1436q214 0 356 -140q41 -41 67 -83t42 -85t23.5 -110t9.5 -130.5t2 -175.5q0 -237 -17.5 -344.5t-82.5 -190.5l103 -103q27 -27 33 -50q8 -31 -18 -57t-57 -18q-23 6 -50 33l-104 103q-130 -97 -307 -97q-214 0 -356 140q-41 41 -67 83t-42 85t-23.5 110t-9.5 130.5
t-2 175.5t2 175.5t9.5 130.5t23.5 110t42 85t67 83q142 140 356 140zM852 192l-133 134q-27 27 -33 50q-8 31 18 57t57 18q23 -6 50 -33l127 -127q37 61 48.5 150.5t11.5 270.5q0 231 -18 325.5t-82 160.5q-99 102 -246 102t-246 -102q-64 -66 -82 -160.5t-18 -325.5
t18 -325.5t82 -160.5q99 -102 244 -102q118 0 202 68z" />
    <glyph glyph-name="R" unicode="R" horiz-adv-x="1314" 
d="M206 1331q0 51 21 72t72 21h455q189 0 306.5 -107t117.5 -289q0 -152 -84.5 -252t-226.5 -130l295 -515q23 -41 23 -69q0 -37 -39 -59q-19 -11 -39 -11q-26 0 -43 16t-35 47l-330 577h-339v-536q0 -50 -14 -72q-20 -32 -63 -32t-63 32q-14 22 -14 72v1235zM740 1288h-380
v-522h380q129 0 206.5 66.5t77.5 193.5t-77.5 194.5t-206.5 67.5z" />
    <glyph glyph-name="S" unicode="S" horiz-adv-x="1177" 
d="M659 635l-167 26q-86 13 -146 37.5t-113 71.5q-110 97 -110 265q0 182 123 291.5t333 109.5q108 0 182 -21.5t167 -78.5q59 -36 59 -78q0 -27 -17 -45q-19 -22 -48 -22q-26 0 -70 28q-72 49 -132 67t-147 18q-141 0 -221.5 -71.5t-80.5 -190.5q0 -111 66 -167
q39 -33 81 -50.5t110 -27.5l157 -24q100 -16 158 -38t103 -61q119 -100 119 -282q0 -186 -134.5 -295t-358.5 -109q-130 0 -218.5 27t-186.5 93q-64 42 -64 87q0 31 21 52q19 19 47 19q30 0 71 -32q79 -61 154.5 -85.5t180.5 -24.5q158 0 247.5 69t89.5 194q0 118 -69 179
q-34 30 -71 43.5t-115 25.5z" />
    <glyph glyph-name="T" unicode="T" horiz-adv-x="1094" 
d="M146 1424h802q46 0 66 -12q29 -19 29 -56t-29 -56q-20 -12 -66 -12h-324v-1192q0 -50 -14 -72q-20 -32 -63 -32t-63 32q-14 22 -14 72v1192h-324q-46 0 -66 12q-29 19 -29 56t29 56q20 12 66 12z" />
    <glyph glyph-name="U" unicode="U" horiz-adv-x="1368" 
d="M1183 470q0 -212 -141 -347t-359 -135t-358 135t-140 347v858q0 50 14 72q20 32 63 32t63 -32q14 -22 14 -72v-846q0 -162 94 -260t250 -98t251 98t95 260v846q0 50 14 72q20 32 63 32t63 -32q14 -22 14 -72v-858z" />
    <glyph glyph-name="V" unicode="V" horiz-adv-x="1086" 
d="M1039 1312l-412 -1237q-15 -46 -32 -62q-22 -21 -52 -21q-31 0 -52 21q-17 16 -32 62l-412 1237q-14 43 -9 68q5 22 26.5 37t45.5 15q26 0 42 -15q19 -16 33 -59l358 -1095l358 1095q14 43 33 59q16 15 42 15q24 0 45.5 -15t26.5 -37q5 -25 -9 -68z" />
    <glyph glyph-name="W" unicode="W" horiz-adv-x="1720" 
d="M860 1151l-294 -1071q-12 -46 -35 -66q-23 -22 -57 -22t-57 22q-23 20 -35 66l-310 1235q-12 48 -5 70q6 21 26.5 34t42.5 13q30 0 46 -16q18 -18 30 -66l269 -1077l294 1080q11 40 29 57q21 20 56 20t56 -20q18 -17 29 -57l294 -1080l269 1077q12 48 30 66q16 16 46 16
q22 0 42.5 -13t26.5 -34q7 -22 -5 -70l-310 -1235q-12 -46 -35 -66q-23 -22 -57 -22t-57 22q-23 20 -35 66z" />
    <glyph glyph-name="X" unicode="X" horiz-adv-x="1093" 
d="M853 55l-307 544l-306 -544q-12 -20 -20.5 -31.5t-24 -21.5t-33.5 -10q-20 0 -39 11q-39 22 -39 59q0 28 23 69l345 599l-322 563q-23 41 -23 69q0 37 39 59q19 11 39 11q26 0 43 -16t35 -47l283 -511l286 511q12 20 20.5 31.5t24 21.5t33.5 10q20 0 39 -11
q39 -22 39 -59q0 -28 -23 -69l-326 -562l347 -600q23 -41 23 -69q0 -37 -39 -59q-19 -11 -39 -11q-26 0 -43 16t-35 47z" />
    <glyph glyph-name="Y" unicode="Y" horiz-adv-x="1008" 
d="M942 1304l-361 -722v-486q0 -50 -14 -72q-20 -32 -63 -32t-63 32q-14 22 -14 72v486l-361 722q-21 43 -19 66q3 36 39 54q16 8 34 8q19 0 34 -10q20 -13 40 -54l310 -620l310 620q20 41 40 54q15 10 34 10q18 0 34 -8q36 -18 39 -54q2 -23 -19 -66z" />
    <glyph glyph-name="Z" unicode="Z" horiz-adv-x="1099" 
d="M904 0h-713q-54 0 -75 21q-21 23 -21 53q0 28 26 71l691 1143h-592q-46 0 -66 12q-29 19 -29 56t29 56q20 12 66 12h683q54 0 75 -21q21 -22 21 -53q0 -26 -27 -71l-689 -1143h621q46 0 66 -12q29 -19 29 -56t-29 -56q-20 -12 -66 -12z" />
    <glyph glyph-name="bracketleft" unicode="[" horiz-adv-x="629" 
d="M547 -83q0 -35 -28 -54q-17 -11 -61 -11h-185q-48 0 -68 20t-20 68v1544q0 48 20 68t68 20h185q44 0 61 -11q28 -19 28 -54t-28 -54q-17 -11 -61 -11h-127v-1460h127q44 0 61 -11q28 -19 28 -54z" />
    <glyph glyph-name="backslash" unicode="\" horiz-adv-x="712" 
d="M549 -86l-518 1552q-15 45 -6 71q7 19 26 31t40 12q29 0 45 -18t27 -52l518 -1552q15 -45 6 -71q-7 -19 -26 -31t-40 -12q-29 0 -45 18t-27 52z" />
    <glyph glyph-name="bracketright" unicode="]" horiz-adv-x="629" 
d="M82 -83q0 35 28 54q17 11 61 11h127v1460h-127q-44 0 -61 11q-28 19 -28 54t28 54q17 11 61 11h185q48 0 68 -20t20 -68v-1544q0 -48 -20 -68t-68 -20h-185q-44 0 -61 11q-28 19 -28 54z" />
    <glyph glyph-name="asciicircum" unicode="^" 
d="M627 1338l232 -464q18 -36 18 -60q0 -26 -21 -44.5t-47 -18.5q-25 0 -41 15.5t-31 46.5l-215 429l-215 -429q-15 -31 -31 -46.5t-41 -15.5q-26 0 -47 18.5t-21 44.5q0 24 18 60l232 464q12 24 20 37.5t20.5 28.5t28.5 21.5t36 6.5q38 0 59.5 -23t45.5 -71z" />
    <glyph glyph-name="underscore" unicode="_" horiz-adv-x="1072" 
d="M949 -338h-826q-38 0 -53 10q-24 14 -24 46t24 46q15 10 53 10h826q38 0 53 -10q24 -14 24 -46t-24 -46q-15 -10 -53 -10z" />
    <glyph glyph-name="grave" unicode="`" horiz-adv-x="1064" 
d="M330 1446q0 37 34 58q18 11 38 11q22 0 38.5 -13t34.5 -43l97 -155q25 -40 25 -62q0 -37 -34 -58q-18 -11 -38 -11q-22 0 -38.5 13t-34.5 43l-97 155q-25 40 -25 62z" />
    <glyph glyph-name="a" unicode="a" horiz-adv-x="1053" 
d="M99 279q0 131 90.5 208t249.5 77h298v80q0 115 -57.5 171t-184.5 56q-73 0 -122 -20t-101 -67q-29 -26 -61 -26q-27 0 -44 18q-18 21 -18 46q0 48 94 110q101 64 253 64q190 0 288 -83.5t98 -245.5v-577q0 -46 -13 -67q-19 -31 -60 -31t-60 31q-13 21 -13 67v2
q-59 -58 -122.5 -81t-159.5 -23q-102 0 -167.5 21.5t-112.5 68.5q-75 78 -75 201zM242 280q0 -169 227 -169q72 0 123.5 13.5t93.5 53.5q51 49 51 171v105h-282q-105 0 -159 -44.5t-54 -129.5z" />
    <glyph glyph-name="b" unicode="b" horiz-adv-x="1095" 
d="M967 492q0 -296 -122 -418q-86 -86 -240 -86q-89 0 -154.5 28t-123.5 102v-28q0 -46 -13 -67q-19 -31 -60 -31t-60 31q-13 21 -13 67v1244q0 46 13 67q19 31 60 31t60 -31q13 -21 13 -67v-464q58 72 124 99t154 27q154 0 240 -86q122 -122 122 -418zM821 492
q0 64 -5 113.5t-20.5 100.5t-41.5 84.5t-72 54.5t-108 21t-108 -21t-72 -54.5t-41.5 -84.5t-20.5 -100.5t-5 -113.5t5 -113.5t20.5 -100.5t41.5 -84.5t72 -54.5t108 -21t108 21t72 54.5t41.5 84.5t20.5 100.5t5 113.5z" />
    <glyph glyph-name="c" unicode="c" horiz-adv-x="978" 
d="M126 492q0 245 119.5 374.5t315.5 129.5q74 0 130 -19t110 -62q40 -31 55 -49.5t15 -43.5q0 -26 -21 -47q-20 -18 -45 -18q-24 0 -70 38q-48 40 -86.5 55.5t-87.5 15.5q-147 0 -225 -109q-34 -49 -49 -110t-15 -155q0 -93 15 -154t49 -110q78 -110 225 -110q50 0 89 15.5
t85 55.5q43 38 70 38q25 0 45 -18q21 -21 21 -47q0 -25 -17 -46t-53 -48q-101 -80 -240 -80q-196 0 -315.5 130t-119.5 374z" />
    <glyph glyph-name="d" unicode="d" horiz-adv-x="1095" 
d="M128 492q0 296 122 418q86 86 240 86q88 0 154 -27t124 -99v464q0 46 13 67q19 31 60 31t60 -31q13 -21 13 -67v-1244q0 -46 -13 -67q-19 -31 -60 -31t-60 31q-13 21 -13 67v28q-58 -74 -123.5 -102t-154.5 -28q-154 0 -240 86q-122 122 -122 418zM274 492
q0 -64 5 -113.5t20.5 -100.5t41.5 -84.5t72 -54.5t108 -21t108 21t72 54.5t41.5 84.5t20.5 100.5t5 113.5t-5 113.5t-20.5 100.5t-41.5 84.5t-72 54.5t-108 21t-108 -21t-72 -54.5t-41.5 -84.5t-20.5 -100.5t-5 -113.5z" />
    <glyph glyph-name="e" unicode="e" horiz-adv-x="1058" 
d="M852 455h-581q0 -163 75.5 -252t216.5 -89q127 0 211 71q42 35 68 35q24 0 43 -19t19 -44q0 -49 -102 -112q-96 -57 -245 -57q-203 0 -317 125.5t-114 378.5q0 241 108.5 372.5t297.5 131.5q186 0 294 -124.5t110 -331.5q0 -46 -20 -66q-19 -19 -64 -19zM271 565h522
q-4 94 -31 160q-28 68 -89 107.5t-141 39.5t-141.5 -40t-88.5 -107q-27 -66 -31 -160z" />
    <glyph glyph-name="f" unicode="f" horiz-adv-x="633" 
d="M362 984h145q38 0 53 -10q24 -14 24 -46t-24 -46q-15 -10 -53 -10h-145v-782q0 -46 -13 -67q-19 -31 -60 -31t-60 31q-13 21 -13 67v782h-69q-38 0 -53 10q-24 14 -24 46t24 46q15 10 53 10h69v180q0 115 65 189.5t185 74.5h26q46 0 65 -12q27 -17 27 -51t-27 -51
q-19 -12 -65 -12q-130 0 -130 -143v-175z" />
    <glyph glyph-name="g" unicode="g" horiz-adv-x="1093" 
d="M493 -325q136 0 204.5 84t68.5 217v157q-55 -73 -123 -102t-155 -29q-74 0 -137 24t-103 64q-68 68 -94 171t-26 239t26 239t94 171q40 40 103.5 63t138.5 23q89 0 154.5 -27.5t121.5 -100.5v26q0 46 13 67q19 31 60 31t60 -31q13 -21 13 -67v-923q0 -187 -112 -304.5
t-304 -117.5q-130 0 -219 48q-104 58 -104 108q0 29 19.5 47.5t41.5 18.5q25 0 73 -37q74 -59 186 -59zM764 500q0 61 -4.5 108.5t-20 98t-41 83.5t-71 54.5t-107.5 21.5t-107.5 -21.5t-71.5 -54.5t-41.5 -83.5t-20.5 -98.5t-5 -109t5 -109t20.5 -98t41.5 -83t71.5 -54
t107.5 -21t107.5 21t71 54t41 83.5t20 98t4.5 109.5z" />
    <glyph glyph-name="h" unicode="h" horiz-adv-x="1129" 
d="M327 90q0 -46 -13 -67q-19 -31 -60 -31t-60 31q-13 21 -13 67v1244q0 46 13 67q19 31 60 31t60 -31q13 -21 13 -67v-458q108 120 276 120q167 0 261.5 -98t94.5 -266v-542q0 -46 -13 -67q-19 -31 -60 -31t-60 31q-13 21 -13 67v518q0 128 -62.5 193t-177.5 65
t-180.5 -65.5t-65.5 -192.5v-518z" />
    <glyph glyph-name="i" unicode="i" horiz-adv-x="518" 
d="M332 894v-804q0 -46 -13 -67q-19 -31 -60 -31t-60 31q-13 21 -13 67v804q0 46 13 67q19 31 60 31t60 -31q13 -21 13 -67zM160 1353q0 41 29 70t70 29t70 -29t29 -70t-29 -70t-70 -29t-70 29t-29 70z" />
    <glyph glyph-name="j" unicode="j" horiz-adv-x="518" 
d="M160 1353q0 41 29 70t70 29t70 -29t29 -70t-29 -70t-70 -29t-70 29t-29 70zM186 -172v1066q0 46 13 67q19 31 60 31t60 -31q13 -21 13 -67v-1071q0 -115 -65 -189.5t-185 -74.5h-26q-46 0 -65 12q-27 17 -27 51t27 51q20 12 65 12q130 0 130 143z" />
    <glyph glyph-name="k" unicode="k" horiz-adv-x="1028" 
d="M949 61q0 -37 -34 -58q-18 -11 -38 -11q-22 0 -38 13t-35 43l-286 453l-191 -217v-194q0 -46 -13 -67q-19 -31 -60 -31t-60 31q-13 21 -13 67v1244q0 46 13 67q19 31 60 31t60 -31q13 -21 13 -67v-861l421 480q21 24 36 33.5t33 9.5q23 0 42 -16q24 -21 24 -48t-35 -67
l-229 -261l305 -481q25 -40 25 -62z" />
    <glyph glyph-name="l" unicode="l" horiz-adv-x="590" 
d="M322 1334v-1065q0 -143 130 -143q46 0 65 -12q27 -17 27 -51t-27 -51q-19 -12 -65 -12h-26q-120 0 -185 74.5t-65 189.5v1070q0 46 13 67q19 31 60 31t60 -31q13 -21 13 -67z" />
    <glyph glyph-name="m" unicode="m" horiz-adv-x="1763" 
d="M814 606q0 127 -64 193.5t-177 66.5q-114 0 -180 -67t-66 -193v-516q0 -46 -13 -67q-19 -31 -60 -31t-60 31q-13 21 -13 67v804q0 46 13 67q19 31 60 31t60 -31q13 -21 13 -67v-18q105 120 278 120q211 0 302 -164q115 164 324 164q159 0 254 -92q108 -103 108 -274v-540
q0 -46 -13 -67q-19 -31 -60 -31t-60 31q-13 21 -13 67v516q0 127 -64.5 193.5t-177.5 66.5q-110 0 -177.5 -65t-67.5 -179v-532q0 -46 -13 -67q-19 -31 -60 -31t-60 31q-13 21 -13 67v516z" />
    <glyph glyph-name="n" unicode="n" horiz-adv-x="1130" 
d="M960 629v-539q0 -45 -13 -67q-19 -31 -60 -31q-43 0 -60 31q-13 22 -13 67v514q0 129 -63 195.5t-178 66.5t-180.5 -67.5t-65.5 -194.5v-514q0 -45 -13 -67q-19 -31 -60 -31t-60 31q-13 22 -13 67v804q0 46 13 67q19 31 60 31t60 -31q13 -21 13 -67v-18q108 120 276 120
q161 0 255 -92q102 -99 102 -275z" />
    <glyph glyph-name="o" unicode="o" horiz-adv-x="1064" 
d="M532 118q107 0 178 71q80 80 80 303q0 222 -80 302q-72 72 -178 72t-178 -72q-80 -80 -80 -302q0 -223 80 -303q71 -71 178 -71zM532 996q171 0 283 -112q71 -72 96 -167t25 -225t-25 -225t-96 -167q-112 -112 -283 -112t-283 112q-71 72 -96 167t-25 225t25 225t96 167
q112 112 283 112z" />
    <glyph glyph-name="p" unicode="p" horiz-adv-x="1095" 
d="M967 492q0 -296 -122 -418q-86 -86 -240 -86q-88 0 -154 27t-124 99v-464q0 -46 -13 -67q-19 -31 -60 -31t-60 31q-13 21 -13 67v1244q0 46 13 67q19 31 60 31t60 -31q13 -21 13 -67v-28q58 74 123.5 102t154.5 28q154 0 240 -86q122 -122 122 -418zM327 492
q0 -64 5 -113.5t20.5 -100.5t41.5 -84.5t72 -54.5t108 -21t108 21t72 54.5t41.5 84.5t20.5 100.5t5 113.5t-5 113.5t-20.5 100.5t-41.5 84.5t-72 54.5t-108 21t-108 -21t-72 -54.5t-41.5 -84.5t-20.5 -100.5t-5 -113.5z" />
    <glyph glyph-name="q" unicode="q" horiz-adv-x="1095" 
d="M128 492q0 296 122 418q86 86 240 86q89 0 154.5 -28t123.5 -102v28q0 46 13 67q19 31 60 31t60 -31q13 -21 13 -67v-1244q0 -46 -13 -67q-19 -31 -60 -31t-60 31q-13 21 -13 67v464q-58 -72 -124 -99t-154 -27q-154 0 -240 86q-122 122 -122 418zM274 492
q0 -64 5 -113.5t20.5 -100.5t41.5 -84.5t72 -54.5t108 -21t108 21t72 54.5t41.5 84.5t20.5 100.5t5 113.5t-5 113.5t-20.5 100.5t-41.5 84.5t-72 54.5t-108 21t-108 -21t-72 -54.5t-41.5 -84.5t-20.5 -100.5t-5 -113.5z" />
    <glyph glyph-name="r" unicode="r" horiz-adv-x="844" 
d="M327 895v-29q41 60 114.5 95t154.5 35q102 0 177 -47q55 -35 55 -74q0 -30 -21 -51t-50 -21q-21 0 -69 28q-59 35 -123 35q-108 0 -173 -74t-65 -191v-511q0 -46 -13 -67q-19 -31 -60 -31t-60 31q-13 21 -13 67v805q0 46 13 67q19 31 60 31t60 -31q13 -21 13 -67z" />
    <glyph glyph-name="s" unicode="s" horiz-adv-x="992" 
d="M145 82q-48 33 -48 68q0 29 23 50q16 15 42 15q28 0 66 -28q103 -74 259 -74q127 0 194.5 43.5t67.5 129.5q0 66 -40 100.5t-124 42.5l-162 15q-294 26 -294 264q0 132 100.5 210.5t261.5 78.5q153 0 275 -62q35 -18 49 -36q11 -16 11 -37q0 -19 -16 -39q-20 -21 -46 -21
q-20 0 -55 19q-101 53 -220 53q-105 0 -162.5 -42t-57.5 -120q0 -66 42 -100t131 -42l158 -15q140 -13 215 -74t75 -193q0 -140 -110 -220t-291 -80q-209 0 -344 94z" />
    <glyph glyph-name="t" unicode="t" horiz-adv-x="672" 
d="M357 872v-603q0 -143 130 -143q45 0 65 -12q27 -17 27 -51t-27 -51q-20 -12 -65 -12h-26q-120 0 -185 74.5t-65 189.5v608h-69q-38 0 -53 10q-24 14 -24 46t24 46q15 10 53 10h69v211q0 46 13 67q19 31 60 31t60 -31q13 -21 13 -67v-211h145q38 0 53 -10q24 -14 24 -46
t-24 -46q-15 -10 -53 -10h-145z" />
    <glyph glyph-name="u" unicode="u" horiz-adv-x="1130" 
d="M170 355v539q0 45 13 67q19 31 60 31q43 0 60 -31q13 -22 13 -67v-514q0 -129 63 -195.5t178 -66.5t180.5 67.5t65.5 194.5v514q0 45 13 67q19 31 60 31t60 -31q13 -22 13 -67v-804q0 -46 -13 -67q-19 -31 -60 -31t-60 31q-13 21 -13 67v18q-108 -120 -276 -120
q-161 0 -255 92q-102 99 -102 275z" />
    <glyph glyph-name="v" unicode="v" horiz-adv-x="874" 
d="M808 878l-276 -798q-17 -50 -41 -70q-23 -18 -54 -18t-54 18q-24 20 -41 70l-276 798q-15 45 -6 71q7 19 26 31t40 12q29 0 45 -18t27 -52l239 -716l239 716q11 34 27 52t45 18q21 0 40 -12t26 -31q9 -26 -6 -71z" />
    <glyph glyph-name="w" unicode="w" horiz-adv-x="1438" 
d="M719 779l-207 -679q-20 -68 -45 -88q-23 -20 -56 -20q-34 0 -57 20q-25 20 -45 88l-232 778q-12 44 -6 67q6 20 25 33.5t42 13.5q26 0 46 -20q14 -14 26 -56l205 -716l206 688q21 68 44 86q22 19 54 19t54 -19q23 -18 44 -86l206 -688l205 716q12 42 26 56q20 20 46 20
q23 0 42 -13.5t25 -33.5q6 -23 -6 -67l-232 -778q-20 -68 -45 -88q-23 -20 -57 -20q-33 0 -56 20q-25 20 -45 88z" />
    <glyph glyph-name="x" unicode="x" horiz-adv-x="880" 
d="M440 385l-206 -337q-18 -30 -34.5 -43t-38.5 -13q-19 0 -39 12q-34 22 -34 58q0 23 25 61l235 371l-233 367q-25 41 -25 62q0 37 35 58q20 12 38 12q23 0 38.5 -13t34.5 -43l204 -334l204 334q19 30 34.5 43t38.5 13q19 0 38 -12q35 -21 35 -58q0 -21 -25 -62l-234 -367
l236 -371q25 -38 25 -61q0 -36 -34 -58q-20 -12 -39 -12q-22 0 -38.5 13t-34.5 43z" />
    <glyph glyph-name="y" unicode="y" horiz-adv-x="873" 
d="M436 195l239 727q11 34 27 52t45 18q21 0 40 -12t26 -31q9 -26 -6 -71l-386 -1115q-26 -77 -70 -118q-70 -67 -181 -67q-49 0 -68 15q-22 19 -22 50q0 34 23 51q19 14 53 14q56 0 91.5 27t57.5 94l62 186l-301 863q-15 45 -6 71q7 19 26 31t40 12q29 0 45 -18t27 -52z
" />
    <glyph glyph-name="z" unicode="z" horiz-adv-x="909" 
d="M204 984h519q45 0 67 -14q27 -18 27 -51q0 -31 -29 -71l-514 -718h457q44 0 61 -11q28 -19 28 -54t-28 -54q-17 -11 -61 -11h-548q-47 0 -66 14q-28 19 -28 52q0 30 30 71l513 717h-428q-44 0 -61 11q-28 19 -28 54t28 54q17 11 61 11z" />
    <glyph glyph-name="braceleft" unicode="{" horiz-adv-x="707" 
d="M419 138q0 -100 29 -129q24 -24 87 -24q37 0 58 -12q28 -16 28 -54q0 -39 -30 -54q-20 -10 -63 -10h-20q-116 0 -174 58q-33 33 -46.5 77t-13.5 121v380q0 84 -36 120q-31 31 -72 35t-57 20q-17 17 -17 46t17 46q16 16 57 20t72 35q36 36 36 120v381q0 77 13.5 121
t46.5 77q58 58 174 58h20q43 0 63 -10q30 -15 30 -54q0 -38 -28 -54q-21 -12 -58 -12q-63 0 -87 -24q-29 -29 -29 -129v-375q0 -81 -32 -125.5t-94 -74.5q62 -30 94 -74.5t32 -125.5v-374z" />
    <glyph glyph-name="bar" unicode="|" horiz-adv-x="652" 
d="M399 -58q0 -46 -13 -67q-19 -31 -60 -31t-60 31q-13 21 -13 67v1540q0 46 13 67q19 31 60 31t60 -31q13 -21 13 -67v-1540z" />
    <glyph glyph-name="braceright" unicode="}" horiz-adv-x="707" 
d="M288 138v374q0 81 32 125.5t94 74.5q-62 30 -94 74.5t-32 125.5v375q0 100 -29 129q-24 24 -87 24q-37 0 -58 12q-28 16 -28 54q0 39 30 54q20 10 63 10h20q116 0 174 -58q33 -33 46.5 -77t13.5 -121v-381q0 -84 36 -120q31 -31 72 -35t57 -20q17 -17 17 -46t-17 -46
q-16 -16 -57 -20t-72 -35q-36 -36 -36 -120v-380q0 -77 -13.5 -121t-46.5 -77q-58 -58 -174 -58h-20q-43 0 -63 10q-30 15 -30 54q0 38 28 54q21 12 58 12q63 0 87 24q29 29 29 129z" />
    <glyph glyph-name="asciitilde" unicode="~" horiz-adv-x="1078" 
d="M167 440q-25 0 -43 20q-17 18 -17 42q0 34 39 70q54 52 102.5 71.5t107.5 19.5q32 0 72 -10.5t64.5 -20.5t74.5 -32q103 -47 155 -47q39 0 68 12.5t66 46.5q27 26 54 26q24 0 44 -20q17 -19 17 -41q0 -34 -40 -71q-53 -51 -101 -70.5t-108 -19.5q-73 0 -212 63
q-37 17 -55 24t-46.5 14.5t-53.5 7.5q-39 0 -67.5 -12.5t-65.5 -46.5q-29 -26 -55 -26z" />
    <glyph glyph-name="uni00A0" unicode="&#xa0;" horiz-adv-x="498" 
 />
    <glyph glyph-name="exclamdown" unicode="&#xa1;" horiz-adv-x="629" 
d="M208 -344v831q0 50 14 72q20 32 63 32t63 -32q14 -22 14 -72v-831q0 -50 -14 -72q-20 -32 -63 -32t-63 32q-14 22 -14 72zM185 890q0 42 29 71t71 29t71.5 -29t29.5 -71t-29.5 -71.5t-71.5 -29.5t-71 29.5t-29 71.5z" />
    <glyph glyph-name="cent" unicode="&#xa2;" horiz-adv-x="978" 
d="M126 734q0 218 96 345t259 153v104q0 44 11 61q19 28 54 28t54 -28q11 -17 11 -61v-101q102 -10 190 -78q40 -31 55 -49.5t15 -43.5q0 -26 -21 -47q-20 -18 -45 -18q-24 0 -70 38q-67 55 -127 67v-741q62 12 127 68q43 38 70 38q25 0 45 -18q21 -21 21 -47q0 -25 -17 -46
t-53 -48q-85 -67 -190 -78v-151q0 -44 -11 -61q-19 -28 -54 -28t-54 28q-11 17 -11 61v155q-163 26 -259 153.5t-96 344.5zM336 470q54 -78 148 -101v730q-92 -21 -148 -100q-34 -49 -49 -110t-15 -155q0 -93 15 -154t49 -110z" />
    <glyph glyph-name="sterling" unicode="&#xa3;" horiz-adv-x="1100" 
d="M115 759q15 10 53 10h65v223q0 203 123.5 323.5t321.5 120.5q163 0 268 -80q47 -36 47 -74q0 -27 -18 -48q-19 -21 -44 -21q-26 0 -63 27q-46 33 -89 47t-101 14q-140 0 -215.5 -85.5t-75.5 -243.5v-203h233q38 0 53 -10q24 -14 24 -46t-24 -46q-15 -10 -53 -10h-233
v-521h531q46 0 66 -12q29 -19 29 -56t-29 -56q-20 -12 -66 -12h-592q-51 0 -72 21t-21 72v564h-65q-38 0 -53 10q-24 14 -24 46t24 46z" />
    <glyph glyph-name="currency" unicode="&#xa4;" horiz-adv-x="1321" 
d="M1104 541q0 -145 -86 -263l100 -98q31 -31 37 -54q8 -33 -19 -60t-60 -19q-23 6 -54 37l-99 98q-116 -86 -263 -86q-149 0 -263 86l-98 -98q-31 -31 -54 -37q-33 -8 -60 19t-19 60q6 23 37 54l98 98q-85 119 -85 263q0 143 85 262l-98 98q-31 31 -37 54q-8 33 19 60
t60 19q23 -6 54 -37l98 -98q114 86 263 86q147 0 263 -86l99 98q31 31 54 37q33 8 60 -19t19 -60q-6 -23 -37 -54l-100 -98q86 -118 86 -262zM347 541q0 -130 91 -221t220 -91t220.5 91t91.5 221q0 129 -91.5 220t-220.5 91t-220 -91t-91 -220z" />
    <glyph glyph-name="yen" unicode="&#xa5;" horiz-adv-x="1022" 
d="M830 376h-242v-280q0 -50 -14 -72q-20 -32 -63 -32t-63 32q-14 22 -14 72v280h-242q-38 0 -53 10q-24 14 -24 46t24 46q15 10 53 10h242v97l-49 98h-193q-38 0 -53 10q-24 14 -24 46t24 46q15 10 53 10h138l-253 509q-21 43 -19 66q3 36 39 54q16 8 34 8q19 0 34 -10
q20 -13 40 -54l307 -615l307 615q21 41 40 54q15 10 34 10q18 0 34 -8q36 -18 39 -54q2 -23 -19 -66l-254 -509h137q38 0 53 -10q24 -14 24 -46t-24 -46q-15 -10 -53 -10h-193l-49 -98v-97h242q38 0 53 -10q24 -14 24 -46t-24 -46q-15 -10 -53 -10z" />
    <glyph glyph-name="brokenbar" unicode="&#xa6;" horiz-adv-x="652" 
d="M399 -58q0 -46 -13 -67q-19 -31 -60 -31t-60 31q-13 21 -13 67v520q0 46 13 67q19 31 60 31t60 -31q13 -21 13 -67v-520zM399 962q0 -46 -13 -67q-19 -31 -60 -31t-60 31q-13 21 -13 67v520q0 46 13 67q19 31 60 31t60 -31q13 -21 13 -67v-520z" />
    <glyph glyph-name="section" unicode="&#xa7;" horiz-adv-x="1113" 
d="M604 93l-155 45q-132 39 -203.5 134t-71.5 232q0 115 60.5 200.5t150.5 128.5q-91 41 -138.5 106.5t-47.5 169.5q0 145 100.5 236t258.5 91q230 0 319 -150q40 -67 40 -128q0 -31 -15 -51q-17 -27 -56 -27t-57 30q-9 14 -14 43q-13 81 -67 118t-150 37q-102 0 -159 -50.5
t-57 -146.5q0 -142 169 -192l155 -45q130 -38 202 -134t72 -232q0 -115 -60.5 -201t-148.5 -128q88 -33 141 -107.5t53 -180.5q0 -153 -105 -247.5t-263 -94.5q-220 0 -320 146q-47 70 -47 136q0 30 15 52q17 27 55 27q39 0 58 -30q9 -13 14 -43q25 -157 225 -157
q103 0 162.5 55t59.5 154q0 70 -46 125t-129 79zM794 506q0 115 -64 184q-67 72 -173 72t-173 -72q-64 -69 -64 -184t64 -184q67 -72 173 -72t173 72q64 69 64 184z" />
    <glyph glyph-name="dieresis" unicode="&#xa8;" horiz-adv-x="1064" 
d="M228 1289q0 38 26.5 64.5t63.5 26.5q38 0 64.5 -27t26.5 -64t-26.5 -63.5t-64.5 -26.5t-64 26.5t-26 63.5zM655 1289q0 38 26.5 64.5t63.5 26.5t64 -27t27 -64t-26.5 -63.5t-64.5 -26.5q-37 0 -63.5 26.5t-26.5 63.5z" />
    <glyph glyph-name="copyright" unicode="&#xa9;" horiz-adv-x="1762" 
d="M157 712q0 197 97 363.5t263.5 263.5t363.5 97t363.5 -97t263.5 -263.5t97 -363.5t-97 -363.5t-263.5 -263.5t-363.5 -97t-363.5 97t-263.5 263.5t-97 363.5zM1499 712q0 127 -49 242.5t-132 199.5t-197.5 134t-239.5 50t-239.5 -50t-197.5 -134t-132 -199.5t-49 -242.5
t49 -242.5t132 -199.5t197.5 -134t239.5 -50t239.5 50t197.5 134t132 199.5t49 242.5zM575 712q0 164 83 263.5t237 99.5q116 0 188 -66q36 -33 36 -58q0 -19 -12 -31q-14 -14 -33 -14t-53 28q-32 28 -60.5 38.5t-65.5 10.5q-114 0 -166 -74.5t-52 -196.5t52 -196.5
t166 -74.5q37 0 65.5 10.5t60.5 38.5q34 28 53 28t33 -14q12 -12 12 -31q0 -25 -36 -58q-72 -66 -188 -66q-154 0 -237 99.5t-83 263.5z" />
    <glyph glyph-name="ordfeminine" unicode="&#xaa;" horiz-adv-x="898" 
d="M613 915v84h-216q-172 0 -172 -138q0 -67 42.5 -99.5t135.5 -32.5q119 0 173 54q37 38 37 132zM419 1430q155 0 232.5 -67t77.5 -195v-457q0 -40 -11 -56q-16 -25 -48 -25q-24 0 -39 16q-17 17 -17 45v19q-48 -46 -97.5 -64t-125.5 -18q-81 0 -132 16.5t-88 54.5
q-60 60 -60 160q0 105 71 166t201 61h230v73q0 86 -46.5 128t-149.5 42q-59 0 -100 -18.5t-80 -59.5q-20 -20 -45 -20q-20 0 -33 14q-14 14 -14 38q0 42 78 96q74 51 196 51z" />
    <glyph glyph-name="guillemotleft" unicode="&#xab;" horiz-adv-x="1148" 
d="M513 751l-242 -242l242 -242q31 -31 37 -54q8 -33 -19 -60t-60 -19q-23 6 -54 37l-338 338l338 338q31 31 54 37q33 8 60 -19t19 -60q-6 -23 -37 -54zM965 751l-242 -242l242 -242q31 -31 37 -54q8 -33 -19 -60t-60 -19q-23 6 -54 37l-338 338l338 338q31 31 54 37
q33 8 60 -19t19 -60q-6 -23 -37 -54z" />
    <glyph glyph-name="logicalnot" unicode="&#xac;" 
d="M874 196q-35 0 -54 28q-11 17 -11 61v189h-626q-44 0 -61 11q-28 19 -28 54t28 54q17 11 61 11h668q48 0 68 -20t20 -68v-231q0 -44 -11 -61q-19 -28 -54 -28z" />
    <glyph glyph-name="uni00AD" unicode="&#xad;" horiz-adv-x="852" 
d="M708 539q0 -35 -28 -54q-17 -11 -61 -11h-386q-44 0 -61 11q-28 19 -28 54t28 54q17 11 61 11h386q44 0 61 -11q28 -19 28 -54z" />
    <glyph glyph-name="registered" unicode="&#xae;" horiz-adv-x="1762" 
d="M1605 712q0 -197 -97 -363.5t-263.5 -263.5t-363.5 -97t-363.5 97t-263.5 263.5t-97 363.5t97 363.5t263.5 263.5t363.5 97t363.5 -97t263.5 -263.5t97 -363.5zM1499 712q0 127 -49 242.5t-132 199.5t-197.5 134t-239.5 50t-239.5 -50t-197.5 -134t-132 -199.5
t-49 -242.5t49 -242.5t132 -199.5t197.5 -134t239.5 -50t239.5 50t197.5 134t132 199.5t49 242.5zM901 977h-130v-242h130q59 0 96.5 32.5t37.5 88.5t-37.5 88.5t-96.5 32.5zM720 351q-27 0 -41 21q-10 15 -10 50v582q0 35 14 50q15 14 50 14h180q95 0 159.5 -60t64.5 -152
q0 -75 -41 -124.5t-110 -70.5l127 -215q17 -30 17 -47q0 -25 -25 -40q-14 -8 -27 -8q-27 0 -53 44l-148 254h-106v-227q0 -35 -10 -50q-14 -21 -41 -21z" />
    <glyph glyph-name="macron" unicode="&#xaf;" horiz-adv-x="1064" 
d="M749 1227h-434q-39 0 -58 11q-26 17 -26 50t26 50q19 11 58 11h434q39 0 58 -11q26 -17 26 -50t-26 -50q-19 -11 -58 -11z" />
    <glyph glyph-name="degree" unicode="&#xb0;" horiz-adv-x="926" 
d="M134 1113q0 137 96 233t233 96t233 -96t96 -233t-96 -233t-233 -96t-233 96t-96 233zM256 1114q0 -88 60 -150t147 -62t147 62t60 150t-60 150t-147 62t-147 -62t-60 -150z" />
    <glyph glyph-name="plusminus" unicode="&#xb1;" 
d="M457 712v271q0 44 11 61q19 28 54 28t54 -28q11 -17 11 -61v-271h271q44 0 61 -11q28 -19 28 -54t-28 -54q-17 -11 -61 -11h-271v-271q0 -44 -11 -61q-19 -28 -54 -28t-54 28q-11 17 -11 61v271h-271q-44 0 -61 11q-28 19 -28 54t28 54q17 11 61 11h271zM947 65
q0 -35 -28 -54q-17 -11 -61 -11h-672q-44 0 -61 11q-28 19 -28 54t28 54q17 11 61 11h672q44 0 61 -11q28 -19 28 -54z" />
    <glyph glyph-name="twosuperior" unicode="&#xb2;" horiz-adv-x="636" 
d="M511 570h-357q-48 0 -65 17q-14 16 -14 37q0 22 30 61l303 392q46 59 46 118q0 61 -34.5 97t-96.5 36q-45 0 -81 -25.5t-46 -72.5q-5 -26 -20 -46q-12 -16 -39 -16q-29 0 -44 21q-9 13 -9 36q0 45 37 105q65 102 202 102q112 0 179 -64t67 -173q0 -49 -16 -87.5
t-57 -90.5l-267 -343h282q35 0 50 -10q21 -14 21 -42t-21 -42q-15 -10 -50 -10z" />
    <glyph glyph-name="threesuperior" unicode="&#xb3;" horiz-adv-x="636" 
d="M564 1193q0 -131 -108 -182q122 -51 122 -201q0 -118 -73.5 -183.5t-185.5 -65.5t-181.5 58.5t-69.5 140.5q0 30 14.5 47.5t41.5 17.5q35 0 46 -38q15 -58 53 -90t96 -32q62 0 102.5 39.5t40.5 106.5q0 66 -37.5 105t-109.5 39q-25 0 -39.5 14.5t-14.5 35.5q0 22 14 36.5
t40 14.5q64 0 98.5 36t34.5 98q0 63 -38 100t-92 37q-93 0 -121 -74q-2 -5 -8.5 -25.5t-11 -29.5t-16 -18.5t-27.5 -9.5q-26 0 -40.5 18t-14.5 46q0 45 30 94q65 103 209 103q110 0 178 -65t68 -173z" />
    <glyph glyph-name="acute" unicode="&#xb4;" horiz-adv-x="1064" 
d="M495 1303l102 163q18 30 33 41q17 12 36 12q20 0 36 -11q35 -21 33 -57q-1 -22 -24 -57l-102 -163q-18 -30 -33 -41q-16 -12 -36 -12t-36 11q-35 21 -33 57q1 22 24 57z" />
    <glyph glyph-name="mu" unicode="&#xb5;" horiz-adv-x="1139" 
d="M327 346q8 -113 71.5 -171.5t169.5 -58.5q113 0 178.5 67.5t65.5 194.5v516q0 46 13 67q19 31 60 31t60 -31q13 -21 13 -67v-804q0 -46 -13 -67q-19 -31 -60 -31t-60 31q-13 21 -13 67v18q-105 -120 -276 -120q-127 0 -209 72v-409q0 -46 -13 -67q-19 -31 -60 -31t-60 31
q-13 21 -13 67v1243q0 46 13 67q19 31 60 31t60 -31q13 -21 13 -67v-548z" />
    <glyph glyph-name="paragraph" unicode="&#xb6;" horiz-adv-x="1207" 
d="M478 652q-173 0 -283.5 115t-110.5 269q0 166 117 277t317 111h396q48 0 68 -20t20 -68v-1686q0 -46 -13 -67q-19 -31 -60 -31t-60 31q-13 21 -13 67v1638h-232v-1638q0 -46 -13 -67q-19 -31 -60 -31t-60 31q-13 21 -13 67v1002z" />
    <glyph glyph-name="periodcentered" unicode="&#xb7;" horiz-adv-x="614" 
d="M193 539q0 47 33.5 80.5t80.5 33.5t80.5 -33.5t33.5 -80.5t-33.5 -80.5t-80.5 -33.5t-80.5 33.5t-33.5 80.5z" />
    <glyph glyph-name="cedilla" unicode="&#xb8;" horiz-adv-x="1064" 
d="M349 -338l102 163q18 30 33 41q16 12 36 12t36 -11q35 -21 33 -57q-1 -22 -24 -57l-102 -163q-18 -30 -33 -41q-16 -12 -36 -12t-36 11q-35 21 -33 57q1 22 24 57z" />
    <glyph glyph-name="onesuperior" unicode="&#xb9;" horiz-adv-x="636" 
d="M130 1170q-21 21 -15 47q4 19 29 44l135 135q36 36 73 36q31 0 48 -18q16 -18 16 -58v-714q0 -38 -10 -54q-17 -26 -48 -26t-48 26q-10 16 -10 54v621l-79 -79q-25 -25 -44 -29q-26 -6 -47 15z" />
    <glyph glyph-name="ordmasculine" unicode="&#xba;" horiz-adv-x="911" 
d="M136 1030q0 104 20.5 180.5t76.5 132.5q87 87 223 87q135 0 222 -87q56 -56 76.5 -132.5t20.5 -180.5t-20.5 -180.5t-76.5 -132.5q-87 -87 -222 -87q-136 0 -223 87q-56 56 -76.5 132.5t-20.5 180.5zM660 1030q0 82 -12 141.5t-50 97.5q-58 58 -142 58q-85 0 -143 -58
q-38 -38 -49.5 -97t-11.5 -142t11.5 -142t49.5 -97q58 -58 143 -58q84 0 142 58q38 38 50 97.5t12 141.5z" />
    <glyph glyph-name="guillemotright" unicode="&#xbb;" horiz-adv-x="1148" 
d="M425 509l-242 242q-31 31 -37 54q-8 33 19 60t60 19q23 -6 54 -37l338 -338l-338 -338q-31 -31 -54 -37q-33 -8 -60 19t-19 60q6 23 37 54zM877 509l-242 242q-31 31 -37 54q-8 33 19 60t60 19q23 -6 54 -37l338 -338l-338 -338q-31 -31 -54 -37q-33 -8 -60 19t-19 60
q6 23 37 54z" />
    <glyph glyph-name="onequarter" unicode="&#xbc;" horiz-adv-x="1641" 
d="M130 1170q-21 21 -15 47q4 19 29 44l135 135q36 36 73 36q31 0 48 -18q16 -18 16 -58v-714q0 -38 -10 -54q-17 -26 -48 -26t-48 26q-10 16 -10 54v621l-79 -79q-25 -25 -44 -29q-26 -6 -47 15zM1184 1335l-646 -1294q-16 -31 -32 -42q-11 -7 -25 -7q-12 0 -24 6
q-27 14 -29 41q-1 19 14 50l646 1294q16 31 32 42q11 7 25 7q12 0 24 -6q27 -14 29 -41q1 -19 -14 -50zM1052 225l294 587q25 50 59 50q20 0 37 -14.5t17 -35.5q0 -19 -15 -49l-265 -529h218v156q0 28 9 40q15 22 42 22t42 -22q9 -12 9 -40v-156h37q35 0 50 -10
q21 -14 21 -42t-21 -42q-15 -10 -50 -10h-37v-76q0 -28 -9 -40q-15 -22 -42 -22t-42 22q-9 12 -9 40v76h-289q-31 0 -46 8q-24 15 -24 43q0 16 14 44z" />
    <glyph glyph-name="onehalf" unicode="&#xbd;" horiz-adv-x="1641" 
d="M130 1170q-21 21 -15 47q4 19 29 44l135 135q36 36 73 36q31 0 48 -18q16 -18 16 -58v-714q0 -38 -10 -54q-17 -26 -48 -26t-48 26q-10 16 -10 54v621l-79 -79q-25 -25 -44 -29q-26 -6 -47 15zM1184 1335l-646 -1294q-16 -31 -32 -42q-11 -7 -25 -7q-12 0 -24 6
q-27 14 -29 41q-1 19 14 50l646 1294q16 31 32 42q11 7 25 7q12 0 24 -6q27 -14 29 -41q1 -19 -14 -50zM1516 0h-357q-48 0 -65 17q-14 16 -14 37q0 22 30 61l303 392q46 59 46 118q0 61 -34.5 97t-96.5 36q-45 0 -81 -25.5t-46 -72.5q-5 -26 -20 -46q-12 -16 -39 -16
q-29 0 -44 21q-9 13 -9 36q0 45 37 105q65 102 202 102q112 0 179 -64t67 -173q0 -49 -16 -87.5t-57 -90.5l-267 -343h282q35 0 50 -10q21 -14 21 -42t-21 -42q-15 -10 -50 -10z" />
    <glyph glyph-name="threequarters" unicode="&#xbe;" horiz-adv-x="1641" 
d="M564 1194q0 -131 -108 -182q122 -51 122 -201q0 -118 -73.5 -183.5t-185.5 -65.5t-181.5 58.5t-69.5 140.5q0 30 14.5 47.5t41.5 17.5q35 0 46 -38q15 -58 53 -90t96 -32q62 0 102.5 39.5t40.5 106.5q0 66 -37.5 105t-109.5 39q-25 0 -39.5 14.5t-14.5 35.5q0 22 14 36.5
t40 14.5q64 0 98.5 36t34.5 98q0 63 -38 100t-92 37q-93 0 -121 -74q-2 -5 -8.5 -25.5t-11 -29.5t-16 -18.5t-27.5 -9.5q-26 0 -40.5 18t-14.5 46q0 45 30 94q65 103 209 103q110 0 178 -65t68 -173zM1184 1335l-646 -1294q-16 -31 -32 -42q-11 -7 -25 -7q-12 0 -24 6
q-27 14 -29 41q-1 19 14 50l646 1294q16 31 32 42q11 7 25 7q12 0 24 -6q27 -14 29 -41q1 -19 -14 -50zM1052 225l294 587q25 50 59 50q20 0 37 -14.5t17 -35.5q0 -19 -15 -49l-265 -529h218v156q0 28 9 40q15 22 42 22t42 -22q9 -12 9 -40v-156h37q35 0 50 -10
q21 -14 21 -42t-21 -42q-15 -10 -50 -10h-37v-76q0 -28 -9 -40q-15 -22 -42 -22t-42 22q-9 12 -9 40v76h-289q-31 0 -46 8q-24 15 -24 43q0 16 14 44z" />
    <glyph glyph-name="questiondown" unicode="&#xbf;" horiz-adv-x="995" 
d="M555 889q0 -42 -29 -71.5t-71 -29.5t-71.5 29.5t-29.5 71.5t29.5 71t71.5 29t71 -29t29 -71zM337 375q38 56 43 143q2 42 22 62t52 20q38 0 58 -28q15 -22 15 -60q0 -64 -12 -104.5t-50 -94.5l-163 -232q-65 -92 -65 -172q0 -100 65.5 -167t164.5 -67q101 0 165 63
q54 52 68 143q5 35 19 53q18 23 55 23q33 0 51 -22q16 -20 16 -56q0 -56 -28 -118.5t-74 -109.5q-48 -49 -118.5 -76.5t-152.5 -27.5q-161 0 -269 102t-108 260q0 67 22.5 121t68.5 121z" />
    <glyph glyph-name="Agrave" unicode="&#xc0;" horiz-adv-x="1222" 
d="M62 118l462 1234q13 35 30 55q23 25 57 25t57 -25q17 -21 30 -55l462 -1234q8 -23 11.5 -38t-0.5 -33t-18 -32q-23 -23 -56 -23q-21 0 -39 13q-20 16 -37 61l-94 256h-633l-94 -256q-17 -45 -37 -61q-18 -13 -39 -13q-33 0 -56 23q-14 14 -17.5 32.5t0 33t11.5 37.5z
M611 1187l-269 -733h537zM405 1817q0 37 34 58q18 11 38 11q22 0 38.5 -13t34.5 -43l97 -155q25 -40 25 -62q0 -37 -34 -58q-18 -11 -38 -11q-22 0 -38.5 13t-34.5 43l-97 155q-25 40 -25 62z" />
    <glyph glyph-name="Aacute" unicode="&#xc1;" horiz-adv-x="1222" 
d="M62 118l462 1234q13 35 30 55q23 25 57 25t57 -25q17 -21 30 -55l462 -1234q8 -23 11.5 -38t-0.5 -33t-18 -32q-23 -23 -56 -23q-21 0 -39 13q-20 16 -37 61l-94 256h-633l-94 -256q-17 -45 -37 -61q-18 -13 -39 -13q-33 0 -56 23q-14 14 -17.5 32.5t0 33t11.5 37.5z
M611 1187l-269 -733h537zM573 1670l102 163q18 30 33 41q17 12 36 12q20 0 36 -11q35 -21 33 -57q-1 -22 -24 -57l-102 -163q-18 -30 -33 -41q-17 -12 -36 -12q-20 0 -36 11q-35 21 -33 57q1 22 24 57z" />
    <glyph glyph-name="Acircumflex" unicode="&#xc2;" horiz-adv-x="1222" 
d="M62 118l462 1234q13 35 30 55q23 25 57 25t57 -25q17 -21 30 -55l462 -1234q8 -23 11.5 -38t-0.5 -33t-18 -32q-23 -23 -56 -23q-21 0 -39 13q-20 16 -37 61l-94 256h-633l-94 -256q-17 -45 -37 -61q-18 -13 -39 -13q-33 0 -56 23q-14 14 -17.5 32.5t0 33t11.5 37.5z
M611 1187l-269 -733h537zM610 1734l-155 -155q-27 -27 -49 -33q-30 -6 -53 17q-24 24 -17 54q6 23 32 49l187 186q27 27 55 27t55 -27l187 -186q26 -26 32 -49q7 -30 -17 -54q-23 -23 -53 -17q-22 6 -49 33z" />
    <glyph glyph-name="Atilde" unicode="&#xc3;" horiz-adv-x="1222" 
d="M62 118l462 1234q13 35 30 55q23 25 57 25t57 -25q17 -21 30 -55l462 -1234q8 -23 11.5 -38t-0.5 -33t-18 -32q-23 -23 -56 -23q-21 0 -39 13q-20 16 -37 61l-94 256h-633l-94 -256q-17 -45 -37 -61q-18 -13 -39 -13q-33 0 -56 23q-14 14 -17.5 32.5t0 33t11.5 37.5z
M611 1187l-269 -733h537zM595 1620q-70 41 -111 41q-24 0 -42.5 -6.5t-45.5 -29.5q-31 -26 -51 -26q-22 0 -37 15t-15 39q0 30 36 61q72 62 153 62q41 0 70.5 -10.5t72.5 -35.5q70 -41 111 -41q24 0 42.5 6.5t45.5 29.5q31 26 51 26q22 0 37 -15t15 -39q0 -30 -36 -61
q-72 -62 -153 -62q-41 0 -70.5 10.5t-72.5 35.5z" />
    <glyph glyph-name="Adieresis" unicode="&#xc4;" horiz-adv-x="1222" 
d="M62 118l462 1234q13 35 30 55q23 25 57 25t57 -25q17 -21 30 -55l462 -1234q8 -23 11.5 -38t-0.5 -33t-18 -32q-23 -23 -56 -23q-21 0 -39 13q-20 16 -37 61l-94 256h-633l-94 -256q-17 -45 -37 -61q-18 -13 -39 -13q-33 0 -56 23q-14 14 -17.5 32.5t0 33t11.5 37.5z
M611 1187l-269 -733h537zM306 1664q0 38 26.5 64.5t63.5 26.5q38 0 64.5 -26.5t26.5 -64.5q0 -37 -26.5 -63.5t-64.5 -26.5t-64 26t-26 64zM733 1664q0 38 26.5 64.5t63.5 26.5t64 -26.5t27 -64.5q0 -37 -26.5 -63.5t-64.5 -26.5q-37 0 -63.5 26t-26.5 64z" />
    <glyph glyph-name="Aring" unicode="&#xc5;" horiz-adv-x="1222" 
d="M62 118l462 1234q13 35 30 55q23 25 57 25t57 -25q17 -21 30 -55l462 -1234q8 -23 11.5 -38t-0.5 -33t-18 -32q-23 -23 -56 -23q-21 0 -39 13q-20 16 -37 61l-94 256h-633l-94 -256q-17 -45 -37 -61q-18 -13 -39 -13q-33 0 -56 23q-14 14 -17.5 32.5t0 33t11.5 37.5z
M611 1187l-269 -733h537zM373 1732q0 98 69.5 167.5t167.5 69.5t167.5 -69.5t69.5 -167.5t-69.5 -167.5t-167.5 -69.5t-167.5 69.5t-69.5 167.5zM472 1732q0 -57 40.5 -97.5t97.5 -40.5t97.5 40.5t40.5 97.5t-40.5 97.5t-97.5 40.5t-97.5 -40.5t-40.5 -97.5z" />
    <glyph glyph-name="AE" unicode="&#xc6;" horiz-adv-x="1804" 
d="M810 337h-474l-140 -281q-20 -41 -40 -54q-15 -10 -34 -10q-18 0 -34 8q-36 18 -39 54q-2 23 19 66l607 1215q21 42 51 66q30 23 75 23h806q46 0 66 -12q29 -19 29 -56t-29 -56q-20 -12 -66 -12h-643v-502h534q46 0 66 -12q29 -19 29 -56t-29 -56q-20 -12 -66 -12h-534
v-514h643q46 0 66 -12q29 -19 29 -56t-29 -56q-20 -12 -66 -12h-704q-51 0 -72 21t-21 72v244zM810 469v817l-408 -817h408z" />
    <glyph glyph-name="Ccedilla" unicode="&#xc7;" horiz-adv-x="1276" 
d="M152 712q0 138 3.5 212.5t18.5 148.5t43.5 123t79.5 100q138 140 354 140q242 0 382 -171q42 -51 66.5 -110t24.5 -97q0 -36 -20 -56t-51 -20q-29 0 -47 16q-21 18 -36 64q-39 114 -121 176t-199 62q-145 0 -244 -102q-65 -66 -82.5 -161t-17.5 -325t17.5 -325t82.5 -161
q99 -102 244 -102q117 0 199 62t121 176q15 46 36 64q18 16 47 16q31 0 51 -20t20 -56q0 -38 -24.5 -97t-66.5 -110q-140 -171 -382 -171q-216 0 -354 140q-51 51 -79.5 100t-43.5 123t-18.5 148.5t-3.5 212.5zM490 -338l102 163q18 30 33 41q17 12 36 12t36 -11
q35 -21 33 -57q-1 -22 -24 -57l-102 -163q-18 -30 -33 -41q-17 -12 -36 -12t-36 11q-35 21 -33 57q1 22 24 57z" />
    <glyph glyph-name="Egrave" unicode="&#xc8;" horiz-adv-x="1200" 
d="M299 1424h704q46 0 66 -12q29 -19 29 -56t-29 -56q-20 -12 -66 -12h-643v-502h534q46 0 66 -12q29 -19 29 -56t-29 -56q-20 -12 -66 -12h-534v-514h643q46 0 66 -12q29 -19 29 -56t-29 -56q-20 -12 -66 -12h-704q-51 0 -72 21t-21 72v1238q0 51 21 72t72 21zM422 1817
q0 37 34 58q18 11 38 11q22 0 38.5 -13t34.5 -43l97 -155q25 -40 25 -62q0 -37 -34 -58q-18 -11 -38 -11q-22 0 -38.5 13t-34.5 43l-97 155q-25 40 -25 62z" />
    <glyph glyph-name="Eacute" unicode="&#xc9;" horiz-adv-x="1200" 
d="M299 1424h704q46 0 66 -12q29 -19 29 -56t-29 -56q-20 -12 -66 -12h-643v-502h534q46 0 66 -12q29 -19 29 -56t-29 -56q-20 -12 -66 -12h-534v-514h643q46 0 66 -12q29 -19 29 -56t-29 -56q-20 -12 -66 -12h-704q-51 0 -72 21t-21 72v1238q0 51 21 72t72 21zM590 1670
l102 163q18 30 33 41q16 12 36 12t36 -11q35 -21 33 -57q-1 -22 -24 -57l-102 -163q-18 -30 -33 -41q-17 -12 -36 -12t-36 11q-35 21 -33 57q1 22 24 57z" />
    <glyph glyph-name="Ecircumflex" unicode="&#xca;" horiz-adv-x="1200" 
d="M299 1424h704q46 0 66 -12q29 -19 29 -56t-29 -56q-20 -12 -66 -12h-643v-502h534q46 0 66 -12q29 -19 29 -56t-29 -56q-20 -12 -66 -12h-534v-514h643q46 0 66 -12q29 -19 29 -56t-29 -56q-20 -12 -66 -12h-704q-51 0 -72 21t-21 72v1238q0 51 21 72t72 21zM627 1734
l-155 -155q-27 -27 -49 -33q-30 -6 -53 17q-24 24 -17 54q6 23 32 49l187 186q27 27 55 27t55 -27l187 -186q26 -26 32 -49q7 -30 -17 -54q-23 -23 -53 -17q-22 6 -49 33z" />
    <glyph glyph-name="Edieresis" unicode="&#xcb;" horiz-adv-x="1200" 
d="M299 1424h704q46 0 66 -12q29 -19 29 -56t-29 -56q-20 -12 -66 -12h-643v-502h534q46 0 66 -12q29 -19 29 -56t-29 -56q-20 -12 -66 -12h-534v-514h643q46 0 66 -12q29 -19 29 -56t-29 -56q-20 -12 -66 -12h-704q-51 0 -72 21t-21 72v1238q0 51 21 72t72 21zM323 1664
q0 38 26.5 64.5t63.5 26.5t64 -26.5t27 -64.5q0 -37 -26.5 -63.5t-64.5 -26.5q-37 0 -63.5 26t-26.5 64zM750 1664q0 38 26.5 64.5t63.5 26.5q38 0 64.5 -26.5t26.5 -64.5q0 -37 -26.5 -63.5t-64.5 -26.5t-64 26t-26 64z" />
    <glyph glyph-name="Igrave" unicode="&#xcc;" horiz-adv-x="566" 
d="M360 1328v-1232q0 -50 -14 -72q-20 -32 -63 -32t-63 32q-14 22 -14 72v1232q0 50 14 72q20 32 63 32t63 -32q14 -22 14 -72zM78 1817q0 37 34 58q18 11 38 11q22 0 38.5 -13t34.5 -43l97 -155q25 -40 25 -62q0 -37 -34 -58q-18 -11 -38 -11q-22 0 -38.5 13t-34.5 43
l-97 155q-25 40 -25 62z" />
    <glyph glyph-name="Iacute" unicode="&#xcd;" horiz-adv-x="566" 
d="M360 1328v-1232q0 -50 -14 -72q-20 -32 -63 -32t-63 32q-14 22 -14 72v1232q0 50 14 72q20 32 63 32t63 -32q14 -22 14 -72zM246 1670l102 163q18 30 33 41q17 12 36 12t36 -11q35 -21 33 -57q-1 -22 -24 -57l-102 -163q-18 -30 -33 -41q-16 -12 -36 -12q-19 0 -36 11
q-35 21 -33 57q1 22 24 57z" />
    <glyph glyph-name="Icircumflex" unicode="&#xce;" horiz-adv-x="566" 
d="M360 1328v-1232q0 -50 -14 -72q-20 -32 -63 -32t-63 32q-14 22 -14 72v1232q0 50 14 72q20 32 63 32t63 -32q14 -22 14 -72zM283 1734l-155 -155q-27 -27 -49 -33q-30 -6 -53 17q-24 24 -17 54q6 23 32 49l187 186q27 27 55 27t55 -27l187 -186q26 -26 32 -49
q7 -30 -17 -54q-23 -23 -53 -17q-22 6 -49 33z" />
    <glyph glyph-name="Idieresis" unicode="&#xcf;" horiz-adv-x="566" 
d="M5 1664q0 38 26.5 64.5t63.5 26.5t64 -26.5t27 -64.5q0 -37 -26.5 -63.5t-64.5 -26.5q-37 0 -63.5 26t-26.5 64zM380 1664q0 38 26.5 64.5t63.5 26.5q38 0 64.5 -26.5t26.5 -64.5q0 -37 -26.5 -63.5t-64.5 -26.5t-64 26t-26 64zM360 1328v-1232q0 -50 -14 -72
q-20 -32 -63 -32t-63 32q-14 22 -14 72v1232q0 50 14 72q20 32 63 32t63 -32q14 -22 14 -72z" />
    <glyph glyph-name="Eth" unicode="&#xd0;" horiz-adv-x="1378" 
d="M327 0q-51 0 -72 21t-21 72v563h-86q-43 0 -60 11q-26 17 -26 51t26 51q17 11 60 11h86v551q0 51 21 72t72 21h397q121 0 212.5 -36t163.5 -114q31 -33 53 -72t35.5 -88t21.5 -88.5t11.5 -103t4 -101t0.5 -109.5t-0.5 -109.5t-4 -101t-11.5 -103t-21.5 -88.5t-35.5 -88
t-53 -72q-72 -78 -163.5 -114t-212.5 -36h-397zM698 1288h-310v-508h250q43 0 60 -11q26 -17 26 -51t-26 -51q-17 -11 -60 -11h-250v-520h310q186 0 281 105q32 36 52 84.5t28.5 117.5t10.5 123t2 146t-2 146t-10.5 123t-28.5 117.5t-52 84.5q-95 105 -281 105z" />
    <glyph glyph-name="Ntilde" unicode="&#xd1;" horiz-adv-x="1466" 
d="M1260 1328v-1235q0 -53 -24 -77t-58 -24q-46 0 -87 61l-731 1080v-1037q0 -50 -14 -72q-20 -32 -63 -32t-63 32q-14 22 -14 72v1235q0 53 24 77q22 24 58 24q26 0 45.5 -14.5t41.5 -46.5l731 -1080v1037q0 50 14 72q20 32 63 32t63 -32q14 -22 14 -72zM717 1620
q-70 41 -111 41q-24 0 -42.5 -6.5t-45.5 -29.5q-31 -26 -51 -26q-22 0 -37 15t-15 39q0 30 36 61q72 62 153 62q41 0 70.5 -10.5t72.5 -35.5q70 -41 111 -41q24 0 42.5 6.5t45.5 29.5q31 26 51 26q22 0 37 -15t15 -39q0 -30 -36 -61q-72 -62 -153 -62q-41 0 -70.5 10.5
t-72.5 35.5z" />
    <glyph glyph-name="Ograve" unicode="&#xd2;" horiz-adv-x="1304" 
d="M652 1436q214 0 356 -140q41 -41 67 -83t42 -85t23.5 -110t9.5 -130.5t2 -175.5t-2 -175.5t-9.5 -130.5t-23.5 -110t-42 -85t-67 -83q-142 -140 -356 -140t-356 140q-41 41 -67 83t-42 85t-23.5 110t-9.5 130.5t-2 175.5t2 175.5t9.5 130.5t23.5 110t42 85t67 83
q142 140 356 140zM652 124q147 0 246 102q64 66 82 160.5t18 325.5t-18 325.5t-82 160.5q-99 102 -246 102t-246 -102q-64 -66 -82 -160.5t-18 -325.5t18 -325.5t82 -160.5q99 -102 246 -102zM445 1817q0 37 34 58q18 11 38 11q22 0 38.5 -13t34.5 -43l97 -155
q25 -40 25 -62q0 -37 -34 -58q-18 -11 -38 -11q-22 0 -38.5 13t-34.5 43l-97 155q-25 40 -25 62z" />
    <glyph glyph-name="Oacute" unicode="&#xd3;" horiz-adv-x="1304" 
d="M652 1436q214 0 356 -140q41 -41 67 -83t42 -85t23.5 -110t9.5 -130.5t2 -175.5t-2 -175.5t-9.5 -130.5t-23.5 -110t-42 -85t-67 -83q-142 -140 -356 -140t-356 140q-41 41 -67 83t-42 85t-23.5 110t-9.5 130.5t-2 175.5t2 175.5t9.5 130.5t23.5 110t42 85t67 83
q142 140 356 140zM652 124q147 0 246 102q64 66 82 160.5t18 325.5t-18 325.5t-82 160.5q-99 102 -246 102t-246 -102q-64 -66 -82 -160.5t-18 -325.5t18 -325.5t82 -160.5q99 -102 246 -102zM613 1670l102 163q18 30 33 41q16 12 36 12t36 -11q35 -21 33 -57
q-1 -22 -24 -57l-102 -163q-18 -30 -33 -41q-16 -12 -36 -12t-36 11q-35 21 -33 57q1 22 24 57z" />
    <glyph glyph-name="Ocircumflex" unicode="&#xd4;" horiz-adv-x="1304" 
d="M652 1436q214 0 356 -140q41 -41 67 -83t42 -85t23.5 -110t9.5 -130.5t2 -175.5t-2 -175.5t-9.5 -130.5t-23.5 -110t-42 -85t-67 -83q-142 -140 -356 -140t-356 140q-41 41 -67 83t-42 85t-23.5 110t-9.5 130.5t-2 175.5t2 175.5t9.5 130.5t23.5 110t42 85t67 83
q142 140 356 140zM652 124q147 0 246 102q64 66 82 160.5t18 325.5t-18 325.5t-82 160.5q-99 102 -246 102t-246 -102q-64 -66 -82 -160.5t-18 -325.5t18 -325.5t82 -160.5q99 -102 246 -102zM650 1734l-155 -155q-27 -27 -49 -33q-30 -6 -53 17q-24 24 -17 54q6 23 32 49
l187 186q27 27 55 27t55 -27l187 -186q26 -26 32 -49q7 -30 -17 -54q-23 -23 -53 -17q-22 6 -49 33z" />
    <glyph glyph-name="Otilde" unicode="&#xd5;" horiz-adv-x="1304" 
d="M652 1436q214 0 356 -140q41 -41 67 -83t42 -85t23.5 -110t9.5 -130.5t2 -175.5t-2 -175.5t-9.5 -130.5t-23.5 -110t-42 -85t-67 -83q-142 -140 -356 -140t-356 140q-41 41 -67 83t-42 85t-23.5 110t-9.5 130.5t-2 175.5t2 175.5t9.5 130.5t23.5 110t42 85t67 83
q142 140 356 140zM652 124q147 0 246 102q64 66 82 160.5t18 325.5t-18 325.5t-82 160.5q-99 102 -246 102t-246 -102q-64 -66 -82 -160.5t-18 -325.5t18 -325.5t82 -160.5q99 -102 246 -102zM635 1620q-70 41 -111 41q-24 0 -42.5 -6.5t-45.5 -29.5q-31 -26 -51 -26
q-22 0 -37 15t-15 39q0 30 36 61q72 62 153 62q41 0 70.5 -10.5t72.5 -35.5q70 -41 111 -41q24 0 42.5 6.5t45.5 29.5q31 26 51 26q22 0 37 -15t15 -39q0 -30 -36 -61q-72 -62 -153 -62q-41 0 -70.5 10.5t-72.5 35.5z" />
    <glyph glyph-name="Odieresis" unicode="&#xd6;" horiz-adv-x="1304" 
d="M652 1436q214 0 356 -140q41 -41 67 -83t42 -85t23.5 -110t9.5 -130.5t2 -175.5t-2 -175.5t-9.5 -130.5t-23.5 -110t-42 -85t-67 -83q-142 -140 -356 -140t-356 140q-41 41 -67 83t-42 85t-23.5 110t-9.5 130.5t-2 175.5t2 175.5t9.5 130.5t23.5 110t42 85t67 83
q142 140 356 140zM652 124q147 0 246 102q64 66 82 160.5t18 325.5t-18 325.5t-82 160.5q-99 102 -246 102t-246 -102q-64 -66 -82 -160.5t-18 -325.5t18 -325.5t82 -160.5q99 -102 246 -102zM346 1664q0 38 26.5 64.5t63.5 26.5q38 0 64.5 -26.5t26.5 -64.5
q0 -37 -26.5 -63.5t-64.5 -26.5t-64 26t-26 64zM773 1664q0 38 26.5 64.5t63.5 26.5t64 -26.5t27 -64.5q0 -37 -26.5 -63.5t-64.5 -26.5q-37 0 -63.5 26t-26.5 64z" />
    <glyph glyph-name="multiply" unicode="&#xd7;" 
d="M426 539l-227 226q-31 31 -37 54q-8 33 19 60t60 19q23 -6 54 -37l227 -226l227 226q31 31 54 37q33 8 60 -19t19 -60q-6 -23 -37 -54l-227 -226l227 -226q31 -31 37 -54q8 -33 -19 -60t-60 -19q-23 6 -54 37l-227 226l-227 -226q-31 -31 -54 -37q-33 -8 -60 19t-19 60
q6 23 37 54z" />
    <glyph glyph-name="Oslash" unicode="&#xd8;" horiz-adv-x="1304" 
d="M249 21l52 104q-42 41 -69 84t-43.5 86.5t-24.5 111t-10 131.5t-2 174q0 112 2 175.5t9.5 130.5t23.5 110t42 85t67 83q142 140 356 140q138 0 246 -62l43 87q19 38 34 49q28 21 63 4q35 -18 35 -53q0 -21 -18 -57l-53 -105q52 -52 82 -102t45 -124t19 -149t4 -212
q0 -112 -2 -175.5t-9.5 -130.5t-23.5 -110t-42 -85t-67 -83q-142 -140 -356 -140q-140 0 -247 61l-42 -85q-19 -38 -34 -49q-28 -21 -63 -4t-35 53q0 21 18 57zM381 272l464 972q-84 57 -193 57q-147 0 -247 -102q-64 -65 -81.5 -160t-17.5 -327q0 -199 13 -288t62 -152z
M652 123q147 0 246 102q64 66 82 161t18 326q0 199 -13 288t-62 152l-464 -972q84 -57 193 -57z" />
    <glyph glyph-name="Ugrave" unicode="&#xd9;" horiz-adv-x="1368" 
d="M1183 470q0 -212 -141 -347t-359 -135t-358 135t-140 347v858q0 50 14 72q20 32 63 32t63 -32q14 -22 14 -72v-846q0 -162 94 -260t250 -98t251 98t95 260v846q0 50 14 72q20 32 63 32t63 -32q14 -22 14 -72v-858zM478 1817q0 37 34 58q18 11 38 11q22 0 38.5 -13
t34.5 -43l97 -155q25 -40 25 -62q0 -37 -34 -58q-18 -11 -38 -11q-22 0 -38.5 13t-34.5 43l-97 155q-25 40 -25 62z" />
    <glyph glyph-name="Uacute" unicode="&#xda;" horiz-adv-x="1368" 
d="M1183 470q0 -212 -141 -347t-359 -135t-358 135t-140 347v858q0 50 14 72q20 32 63 32t63 -32q14 -22 14 -72v-846q0 -162 94 -260t250 -98t251 98t95 260v846q0 50 14 72q20 32 63 32t63 -32q14 -22 14 -72v-858zM646 1670l102 163q18 30 33 41q17 12 36 12t36 -11
q35 -21 33 -57q-1 -22 -24 -57l-102 -163q-18 -30 -33 -41q-17 -12 -36 -12t-36 11q-35 21 -33 57q1 22 24 57z" />
    <glyph glyph-name="Ucircumflex" unicode="&#xdb;" horiz-adv-x="1368" 
d="M1183 470q0 -212 -141 -347t-359 -135t-358 135t-140 347v858q0 50 14 72q20 32 63 32t63 -32q14 -22 14 -72v-846q0 -162 94 -260t250 -98t251 98t95 260v846q0 50 14 72q20 32 63 32t63 -32q14 -22 14 -72v-858zM683 1734l-155 -155q-27 -27 -49 -33q-30 -6 -53 17
q-24 24 -17 54q6 23 32 49l187 186q27 27 55 27t55 -27l187 -186q26 -26 32 -49q7 -30 -17 -54q-23 -23 -53 -17q-22 6 -49 33z" />
    <glyph glyph-name="Udieresis" unicode="&#xdc;" horiz-adv-x="1368" 
d="M1183 470q0 -212 -141 -347t-359 -135t-358 135t-140 347v858q0 50 14 72q20 32 63 32t63 -32q14 -22 14 -72v-846q0 -162 94 -260t250 -98t251 98t95 260v846q0 50 14 72q20 32 63 32t63 -32q14 -22 14 -72v-858zM379 1664q0 38 26.5 64.5t63.5 26.5t64 -26.5t27 -64.5
q0 -37 -26.5 -63.5t-64.5 -26.5q-37 0 -63.5 26t-26.5 64zM806 1664q0 38 26.5 64.5t63.5 26.5q38 0 64.5 -26.5t26.5 -64.5q0 -37 -26.5 -63.5t-64.5 -26.5t-64 26t-26 64z" />
    <glyph glyph-name="Yacute" unicode="&#xdd;" horiz-adv-x="1008" 
d="M942 1304l-361 -722v-486q0 -50 -14 -72q-20 -32 -63 -32t-63 32q-14 22 -14 72v486l-361 722q-21 43 -19 66q3 36 39 54q16 8 34 8q19 0 34 -10q20 -13 40 -54l310 -620l310 620q20 41 40 54q15 10 34 10q18 0 34 -8q36 -18 39 -54q2 -23 -19 -66zM467 1670l102 163
q18 30 33 41q17 12 36 12q20 0 36 -11q35 -21 33 -57q-1 -22 -24 -57l-102 -163q-18 -30 -33 -41q-17 -12 -36 -12q-20 0 -36 11q-35 21 -33 57q1 22 24 57z" />
    <glyph glyph-name="Thorn" unicode="&#xde;" horiz-adv-x="1289" 
d="M360 1138h378q196 0 319 -114.5t123 -303.5t-123 -304.5t-319 -115.5h-378v-204q0 -50 -14 -72q-20 -32 -63 -32t-63 32q-14 22 -14 72v1232q0 50 14 72q20 32 63 32t63 -32q14 -22 14 -72v-190zM726 1002h-366v-566h366q137 0 218 73t81 211q0 137 -80.5 209.5
t-218.5 72.5z" />
    <glyph glyph-name="germandbls" unicode="&#xdf;" horiz-adv-x="1112" 
d="M652 128h17q72 0 115 41q42 39 42 123v346q0 81 -41 121q-41 41 -114 41h-28q-37 0 -54 11q-25 17 -25 49t25 49q17 11 54 11h12q77 0 124 49.5t47 130.5q0 92 -62 151t-190 59q-247 0 -247 -271v-949q0 -45 -13 -67q-19 -31 -60 -31q-43 0 -60 31q-13 22 -13 67v956
q0 185 108 287.5t295 102.5q110 0 195 -34t138 -110.5t53 -186.5q0 -155 -125 -239q72 -38 99.5 -90.5t27.5 -149.5v-349q0 -130 -80 -205q-79 -72 -198 -72h-42q-42 0 -61 12q-27 19 -27 52t27 52q19 12 61 12z" />
    <glyph glyph-name="agrave" unicode="&#xe0;" horiz-adv-x="1053" 
d="M99 279q0 131 90.5 208t249.5 77h298v80q0 115 -57.5 171t-184.5 56q-73 0 -122 -20t-101 -67q-29 -26 -61 -26q-27 0 -44 18q-18 21 -18 46q0 48 94 110q101 64 253 64q190 0 288 -83.5t98 -245.5v-577q0 -46 -13 -67q-19 -31 -60 -31t-60 31q-13 21 -13 67v2
q-59 -58 -122.5 -81t-159.5 -23q-102 0 -167.5 21.5t-112.5 68.5q-75 78 -75 201zM242 280q0 -169 227 -169q72 0 123.5 13.5t93.5 53.5q51 49 51 171v105h-282q-105 0 -159 -44.5t-54 -129.5zM304 1446q0 37 34 58q18 11 38 11q22 0 38.5 -13t34.5 -43l97 -155
q25 -40 25 -62q0 -37 -34 -58q-18 -11 -38 -11q-22 0 -38.5 13t-34.5 43l-97 155q-25 40 -25 62z" />
    <glyph glyph-name="aacute" unicode="&#xe1;" horiz-adv-x="1053" 
d="M99 279q0 131 90.5 208t249.5 77h298v80q0 115 -57.5 171t-184.5 56q-73 0 -122 -20t-101 -67q-29 -26 -61 -26q-27 0 -44 18q-18 21 -18 46q0 48 94 110q101 64 253 64q190 0 288 -83.5t98 -245.5v-577q0 -46 -13 -67q-19 -31 -60 -31t-60 31q-13 21 -13 67v2
q-59 -58 -122.5 -81t-159.5 -23q-102 0 -167.5 21.5t-112.5 68.5q-75 78 -75 201zM242 280q0 -169 227 -169q72 0 123.5 13.5t93.5 53.5q51 49 51 171v105h-282q-105 0 -159 -44.5t-54 -129.5zM469 1303l102 163q18 30 33 41q16 12 36 12t36 -11q35 -21 33 -57
q-1 -22 -24 -57l-102 -163q-18 -30 -33 -41q-16 -12 -36 -12q-19 0 -36 11q-35 21 -33 57q1 22 24 57z" />
    <glyph glyph-name="acircumflex" unicode="&#xe2;" horiz-adv-x="1053" 
d="M99 279q0 131 90.5 208t249.5 77h298v80q0 115 -57.5 171t-184.5 56q-73 0 -122 -20t-101 -67q-29 -26 -61 -26q-27 0 -44 18q-18 21 -18 46q0 48 94 110q101 64 253 64q190 0 288 -83.5t98 -245.5v-577q0 -46 -13 -67q-19 -31 -60 -31t-60 31q-13 21 -13 67v2
q-59 -58 -122.5 -81t-159.5 -23q-102 0 -167.5 21.5t-112.5 68.5q-75 78 -75 201zM242 280q0 -169 227 -169q72 0 123.5 13.5t93.5 53.5q51 49 51 171v105h-282q-105 0 -159 -44.5t-54 -129.5zM506 1360l-155 -155q-27 -27 -49 -33q-30 -6 -53 17q-24 24 -17 54q6 23 32 49
l187 186q27 27 55 27t55 -27l187 -186q26 -26 32 -49q7 -30 -17 -54q-23 -23 -53 -17q-22 6 -49 33z" />
    <glyph glyph-name="atilde" unicode="&#xe3;" horiz-adv-x="1053" 
d="M99 279q0 131 90.5 208t249.5 77h298v80q0 115 -57.5 171t-184.5 56q-73 0 -122 -20t-101 -67q-29 -26 -61 -26q-27 0 -44 18q-18 21 -18 46q0 48 94 110q101 64 253 64q190 0 288 -83.5t98 -245.5v-577q0 -46 -13 -67q-19 -31 -60 -31t-60 31q-13 21 -13 67v2
q-59 -58 -122.5 -81t-159.5 -23q-102 0 -167.5 21.5t-112.5 68.5q-75 78 -75 201zM242 280q0 -169 227 -169q72 0 123.5 13.5t93.5 53.5q51 49 51 171v105h-282q-105 0 -159 -44.5t-54 -129.5zM491 1258q-70 41 -111 41q-24 0 -42.5 -6.5t-45.5 -29.5q-31 -26 -51 -26
q-22 0 -37 15t-15 39q0 30 36 61q72 62 153 62q41 0 70.5 -10.5t72.5 -35.5q70 -41 111 -41q24 0 42.5 6.5t45.5 29.5q31 26 51 26q22 0 37 -15t15 -39q0 -30 -36 -61q-72 -62 -153 -62q-41 0 -70.5 10.5t-72.5 35.5z" />
    <glyph glyph-name="adieresis" unicode="&#xe4;" horiz-adv-x="1053" 
d="M99 279q0 131 90.5 208t249.5 77h298v80q0 115 -57.5 171t-184.5 56q-73 0 -122 -20t-101 -67q-29 -26 -61 -26q-27 0 -44 18q-18 21 -18 46q0 48 94 110q101 64 253 64q190 0 288 -83.5t98 -245.5v-577q0 -46 -13 -67q-19 -31 -60 -31t-60 31q-13 21 -13 67v2
q-59 -58 -122.5 -81t-159.5 -23q-102 0 -167.5 21.5t-112.5 68.5q-75 78 -75 201zM242 280q0 -169 227 -169q72 0 123.5 13.5t93.5 53.5q51 49 51 171v105h-282q-105 0 -159 -44.5t-54 -129.5zM202 1289q0 38 26.5 64.5t63.5 26.5q38 0 64.5 -27t26.5 -64t-26.5 -63.5
t-64.5 -26.5t-64 26.5t-26 63.5zM629 1289q0 38 26.5 64.5t63.5 26.5t64 -27t27 -64t-26.5 -63.5t-64.5 -26.5q-37 0 -63.5 26.5t-26.5 63.5z" />
    <glyph glyph-name="aring" unicode="&#xe5;" horiz-adv-x="1053" 
d="M99 279q0 131 90.5 208t249.5 77h298v80q0 115 -57.5 171t-184.5 56q-73 0 -122 -20t-101 -67q-29 -26 -61 -26q-27 0 -44 18q-18 21 -18 46q0 48 94 110q101 64 253 64q190 0 288 -83.5t98 -245.5v-577q0 -46 -13 -67q-19 -31 -60 -31t-60 31q-13 21 -13 67v2
q-59 -58 -122.5 -81t-159.5 -23q-102 0 -167.5 21.5t-112.5 68.5q-75 78 -75 201zM242 280q0 -169 227 -169q72 0 123.5 13.5t93.5 53.5q51 49 51 171v105h-282q-105 0 -159 -44.5t-54 -129.5zM269 1374q0 98 69.5 167.5t167.5 69.5t167.5 -69.5t69.5 -167.5t-69.5 -167.5
t-167.5 -69.5t-167.5 69.5t-69.5 167.5zM368 1374q0 -57 40.5 -97.5t97.5 -40.5t97.5 40.5t40.5 97.5t-40.5 97.5t-97.5 40.5t-97.5 -40.5t-40.5 -97.5z" />
    <glyph glyph-name="ae" unicode="&#xe6;" horiz-adv-x="1668" 
d="M1167 -12q-245 0 -352 171q-66 -94 -149 -132.5t-212 -38.5q-102 0 -167.5 21.5t-112.5 68.5q-75 78 -75 201q0 131 90.5 208t249.5 77h298v80q0 115 -57.5 171t-184.5 56q-73 0 -122 -20t-101 -67q-29 -26 -61 -26q-27 0 -44 18q-18 21 -18 46q0 48 94 110
q101 64 253 64q254 0 338 -153q105 153 308 153q186 0 294 -124.5t110 -331.5q0 -46 -20 -66q-19 -19 -64 -19h-581q0 -163 75.5 -252t216.5 -89q127 0 211 71q42 35 68 35q24 0 43 -19t19 -44q0 -49 -102 -112q-96 -57 -245 -57zM881 565h522q-4 94 -31 160
q-28 68 -89 107.5t-141 39.5t-141.5 -40t-88.5 -107q-27 -66 -31 -160zM242 280q0 -169 227 -169q72 0 123.5 13.5t93.5 53.5q51 49 51 171v105h-282q-105 0 -159 -44.5t-54 -129.5z" />
    <glyph glyph-name="ccedilla" unicode="&#xe7;" horiz-adv-x="978" 
d="M126 492q0 245 119.5 374.5t315.5 129.5q74 0 130 -19t110 -62q40 -31 55 -49.5t15 -43.5q0 -26 -21 -47q-20 -18 -45 -18q-24 0 -70 38q-48 40 -86.5 55.5t-87.5 15.5q-147 0 -225 -109q-34 -49 -49 -110t-15 -155q0 -93 15 -154t49 -110q78 -110 225 -110q50 0 89 15.5
t85 55.5q43 38 70 38q25 0 45 -18q21 -21 21 -47q0 -25 -17 -46t-53 -48q-101 -80 -240 -80q-196 0 -315.5 130t-119.5 374zM377 -338l102 163q18 30 33 41q16 12 36 12t36 -11q35 -21 33 -57q-1 -22 -24 -57l-102 -163q-18 -30 -33 -41q-16 -12 -36 -12t-36 11
q-35 21 -33 57q1 22 24 57z" />
    <glyph glyph-name="egrave" unicode="&#xe8;" horiz-adv-x="1058" 
d="M852 455h-581q0 -163 75.5 -252t216.5 -89q127 0 211 71q42 35 68 35q24 0 43 -19t19 -44q0 -49 -102 -112q-96 -57 -245 -57q-203 0 -317 125.5t-114 378.5q0 241 108.5 372.5t297.5 131.5q186 0 294 -124.5t110 -331.5q0 -46 -20 -66q-19 -19 -64 -19zM271 565h522
q-4 94 -31 160q-28 68 -89 107.5t-141 39.5t-141.5 -40t-88.5 -107q-27 -66 -31 -160zM329 1446q0 37 34 58q18 11 38 11q22 0 38.5 -13t34.5 -43l97 -155q25 -40 25 -62q0 -37 -34 -58q-18 -11 -38 -11q-22 0 -38.5 13t-34.5 43l-97 155q-25 40 -25 62z" />
    <glyph glyph-name="eacute" unicode="&#xe9;" horiz-adv-x="1058" 
d="M852 455h-581q0 -163 75.5 -252t216.5 -89q127 0 211 71q42 35 68 35q24 0 43 -19t19 -44q0 -49 -102 -112q-96 -57 -245 -57q-203 0 -317 125.5t-114 378.5q0 241 108.5 372.5t297.5 131.5q186 0 294 -124.5t110 -331.5q0 -46 -20 -66q-19 -19 -64 -19zM271 565h522
q-4 94 -31 160q-28 68 -89 107.5t-141 39.5t-141.5 -40t-88.5 -107q-27 -66 -31 -160zM494 1303l102 163q18 30 33 41q17 12 36 12t36 -11q35 -21 33 -57q-1 -22 -24 -57l-102 -163q-18 -30 -33 -41q-17 -12 -36 -12t-36 11q-35 21 -33 57q1 22 24 57z" />
    <glyph glyph-name="ecircumflex" unicode="&#xea;" horiz-adv-x="1058" 
d="M852 455h-581q0 -163 75.5 -252t216.5 -89q127 0 211 71q42 35 68 35q24 0 43 -19t19 -44q0 -49 -102 -112q-96 -57 -245 -57q-203 0 -317 125.5t-114 378.5q0 241 108.5 372.5t297.5 131.5q186 0 294 -124.5t110 -331.5q0 -46 -20 -66q-19 -19 -64 -19zM271 565h522
q-4 94 -31 160q-28 68 -89 107.5t-141 39.5t-141.5 -40t-88.5 -107q-27 -66 -31 -160zM531 1360l-155 -155q-27 -27 -49 -33q-30 -6 -53 17q-24 24 -17 54q6 23 32 49l187 186q27 27 55 27t55 -27l187 -186q26 -26 32 -49q7 -30 -17 -54q-23 -23 -53 -17q-22 6 -49 33z" />
    <glyph glyph-name="edieresis" unicode="&#xeb;" horiz-adv-x="1058" 
d="M852 455h-581q0 -163 75.5 -252t216.5 -89q127 0 211 71q42 35 68 35q24 0 43 -19t19 -44q0 -49 -102 -112q-96 -57 -245 -57q-203 0 -317 125.5t-114 378.5q0 241 108.5 372.5t297.5 131.5q186 0 294 -124.5t110 -331.5q0 -46 -20 -66q-19 -19 -64 -19zM271 565h522
q-4 94 -31 160q-28 68 -89 107.5t-141 39.5t-141.5 -40t-88.5 -107q-27 -66 -31 -160zM227 1289q0 38 26.5 64.5t63.5 26.5t64 -27t27 -64t-26.5 -63.5t-64.5 -26.5q-37 0 -63.5 26.5t-26.5 63.5zM654 1289q0 38 26.5 64.5t63.5 26.5q38 0 64.5 -27t26.5 -64t-26.5 -63.5
t-64.5 -26.5t-64 26.5t-26 63.5z" />
    <glyph glyph-name="igrave" unicode="&#xec;" horiz-adv-x="518" 
d="M332 894v-804q0 -46 -13 -67q-19 -31 -60 -31t-60 31q-13 21 -13 67v804q0 46 13 67q19 31 60 31t60 -31q13 -21 13 -67zM57 1446q0 37 34 58q18 11 38 11q22 0 38.5 -13t34.5 -43l97 -155q25 -40 25 -62q0 -37 -34 -58q-18 -11 -38 -11q-22 0 -38.5 13t-34.5 43l-97 155
q-25 40 -25 62z" />
    <glyph glyph-name="iacute" unicode="&#xed;" horiz-adv-x="518" 
d="M332 894v-804q0 -46 -13 -67q-19 -31 -60 -31t-60 31q-13 21 -13 67v804q0 46 13 67q19 31 60 31t60 -31q13 -21 13 -67zM222 1303l102 163q18 30 33 41q16 12 36 12q19 0 36 -11q35 -21 33 -57q-1 -22 -24 -57l-102 -163q-18 -30 -33 -41q-17 -12 -36 -12t-36 11
q-35 21 -33 57q1 22 24 57z" />
    <glyph glyph-name="icircumflex" unicode="&#xee;" horiz-adv-x="518" 
d="M332 894v-804q0 -46 -13 -67q-19 -31 -60 -31t-60 31q-13 21 -13 67v804q0 46 13 67q19 31 60 31t60 -31q13 -21 13 -67zM259 1360l-155 -155q-27 -27 -49 -33q-30 -6 -53 17q-24 24 -17 54q6 23 32 49l187 186q27 27 55 27t55 -27l187 -186q26 -26 32 -49q7 -30 -17 -54
q-23 -23 -53 -17q-22 6 -49 33z" />
    <glyph glyph-name="idieresis" unicode="&#xef;" horiz-adv-x="518" 
d="M-19 1289q0 38 26.5 64.5t63.5 26.5t64 -27t27 -64t-26.5 -63.5t-64.5 -26.5q-37 0 -63.5 26.5t-26.5 63.5zM356 1289q0 38 26.5 64.5t63.5 26.5q38 0 64.5 -27t26.5 -64t-26.5 -63.5t-64.5 -26.5t-64 26.5t-26 63.5zM332 894v-804q0 -46 -13 -67q-19 -31 -60 -31t-60 31
q-13 21 -13 67v804q0 46 13 67q19 31 60 31t60 -31q13 -21 13 -67z" />
    <glyph glyph-name="eth" unicode="&#xf0;" horiz-adv-x="1061" 
d="M322 1244q15 10 53 10h122l-29 59q-18 36 -18 60q0 26 21 44.5t47 18.5q25 0 41 -16t31 -46l60 -120h112q38 0 53 -10q24 -14 24 -46t-24 -46q-15 -10 -53 -10h-56l140 -280q49 -98 67 -178.5t18 -194.5q0 -128 -25.5 -224.5t-94.5 -165.5q-109 -111 -281 -111
q-171 0 -280 111q-69 69 -94.5 165.5t-25.5 224.5t25.5 224.5t94.5 165.5q102 104 280 104q66 0 113 -22l-90 181h-178q-38 0 -53 10q-24 14 -24 46t24 46zM786 489q0 104 -15 178t-63 122q-72 72 -178 72q-105 0 -177 -72q-48 -48 -63 -122t-15 -178q0 -105 15 -179
t63 -122q74 -72 177 -72q104 0 178 72q48 48 63 122t15 179z" />
    <glyph glyph-name="ntilde" unicode="&#xf1;" horiz-adv-x="1130" 
d="M960 629v-539q0 -45 -13 -67q-19 -31 -60 -31q-43 0 -60 31q-13 22 -13 67v514q0 129 -63 195.5t-178 66.5t-180.5 -67.5t-65.5 -194.5v-514q0 -45 -13 -67q-19 -31 -60 -31t-60 31q-13 22 -13 67v804q0 46 13 67q19 31 60 31t60 -31q13 -21 13 -67v-18q108 120 276 120
q161 0 255 -92q102 -99 102 -275zM561 1258q-70 41 -111 41q-24 0 -42.5 -6.5t-45.5 -29.5q-31 -26 -51 -26q-22 0 -37 15t-15 39q0 30 36 61q72 62 153 62q41 0 70.5 -10.5t72.5 -35.5q70 -41 111 -41q24 0 42.5 6.5t45.5 29.5q31 26 51 26q22 0 37 -15t15 -39
q0 -30 -36 -61q-72 -62 -153 -62q-41 0 -70.5 10.5t-72.5 35.5z" />
    <glyph glyph-name="ograve" unicode="&#xf2;" horiz-adv-x="1064" 
d="M532 118q107 0 178 71q80 80 80 303q0 222 -80 302q-72 72 -178 72t-178 -72q-80 -80 -80 -302q0 -223 80 -303q71 -71 178 -71zM532 996q171 0 283 -112q71 -72 96 -167t25 -225t-25 -225t-96 -167q-112 -112 -283 -112t-283 112q-71 72 -96 167t-25 225t25 225t96 167
q112 112 283 112zM330 1446q0 37 34 58q18 11 38 11q22 0 38.5 -13t34.5 -43l97 -155q25 -40 25 -62q0 -37 -34 -58q-18 -11 -38 -11q-22 0 -38.5 13t-34.5 43l-97 155q-25 40 -25 62z" />
    <glyph glyph-name="oacute" unicode="&#xf3;" horiz-adv-x="1064" 
d="M532 118q107 0 178 71q80 80 80 303q0 222 -80 302q-72 72 -178 72t-178 -72q-80 -80 -80 -302q0 -223 80 -303q71 -71 178 -71zM532 996q171 0 283 -112q71 -72 96 -167t25 -225t-25 -225t-96 -167q-112 -112 -283 -112t-283 112q-71 72 -96 167t-25 225t25 225t96 167
q112 112 283 112zM495 1303l102 163q18 30 33 41q17 12 36 12q20 0 36 -11q35 -21 33 -57q-1 -22 -24 -57l-102 -163q-18 -30 -33 -41q-16 -12 -36 -12t-36 11q-35 21 -33 57q1 22 24 57z" />
    <glyph glyph-name="ocircumflex" unicode="&#xf4;" horiz-adv-x="1064" 
d="M532 118q107 0 178 71q80 80 80 303q0 222 -80 302q-72 72 -178 72t-178 -72q-80 -80 -80 -302q0 -223 80 -303q71 -71 178 -71zM532 996q171 0 283 -112q71 -72 96 -167t25 -225t-25 -225t-96 -167q-112 -112 -283 -112t-283 112q-71 72 -96 167t-25 225t25 225t96 167
q112 112 283 112zM532 1360l-155 -155q-27 -27 -49 -33q-30 -6 -53 17q-24 24 -17 54q6 23 32 49l187 186q27 27 55 27t55 -27l187 -186q26 -26 32 -49q7 -30 -17 -54q-23 -23 -53 -17q-22 6 -49 33z" />
    <glyph glyph-name="otilde" unicode="&#xf5;" horiz-adv-x="1064" 
d="M532 118q107 0 178 71q80 80 80 303q0 222 -80 302q-72 72 -178 72t-178 -72q-80 -80 -80 -302q0 -223 80 -303q71 -71 178 -71zM532 996q171 0 283 -112q71 -72 96 -167t25 -225t-25 -225t-96 -167q-112 -112 -283 -112t-283 112q-71 72 -96 167t-25 225t25 225t96 167
q112 112 283 112zM517 1258q-70 41 -111 41q-24 0 -42.5 -6.5t-45.5 -29.5q-31 -26 -51 -26q-22 0 -37 15t-15 39q0 30 36 61q72 62 153 62q41 0 70.5 -10.5t72.5 -35.5q70 -41 111 -41q24 0 42.5 6.5t45.5 29.5q31 26 51 26q22 0 37 -15t15 -39q0 -30 -36 -61
q-72 -62 -153 -62q-41 0 -70.5 10.5t-72.5 35.5z" />
    <glyph glyph-name="odieresis" unicode="&#xf6;" horiz-adv-x="1064" 
d="M532 118q107 0 178 71q80 80 80 303q0 222 -80 302q-72 72 -178 72t-178 -72q-80 -80 -80 -302q0 -223 80 -303q71 -71 178 -71zM532 996q171 0 283 -112q71 -72 96 -167t25 -225t-25 -225t-96 -167q-112 -112 -283 -112t-283 112q-71 72 -96 167t-25 225t25 225t96 167
q112 112 283 112zM228 1289q0 38 26.5 64.5t63.5 26.5q38 0 64.5 -27t26.5 -64t-26.5 -63.5t-64.5 -26.5t-64 26.5t-26 63.5zM655 1289q0 38 26.5 64.5t63.5 26.5t64 -27t27 -64t-26.5 -63.5t-64.5 -26.5q-37 0 -63.5 26.5t-26.5 63.5z" />
    <glyph glyph-name="divide" unicode="&#xf7;" 
d="M406 180q0 47 33.5 80.5t80.5 33.5t80.5 -33.5t33.5 -80.5t-33.5 -80.5t-80.5 -33.5t-80.5 33.5t-33.5 80.5zM408 896q0 47 33.5 80.5t80.5 33.5t80.5 -33.5t33.5 -80.5t-33.5 -80.5t-80.5 -33.5t-80.5 33.5t-33.5 80.5zM947 539q0 -35 -28 -54q-17 -11 -61 -11h-672
q-44 0 -61 11q-28 19 -28 54t28 54q17 11 61 11h672q44 0 61 -11q28 -19 28 -54z" />
    <glyph glyph-name="oslash" unicode="&#xf8;" horiz-adv-x="1064" 
d="M532 996q115 0 205 -52l53 90q22 39 47 45q20 5 39 -7q28 -16 27 -46q-1 -19 -18 -46l-63 -104q67 -71 90.5 -164t23.5 -220q0 -130 -25 -225t-96 -167q-112 -112 -283 -112q-117 0 -207 53l-54 -92q-22 -39 -47 -45q-20 -5 -39 7q-28 16 -27 46q1 19 18 46l64 107
q-65 71 -88.5 163.5t-23.5 218.5q0 130 25 225t96 167q112 112 283 112zM326 230l349 593q-65 43 -143 43q-106 0 -179 -73q-49 -49 -64 -123.5t-15 -180.5q0 -182 52 -259zM738 754l-349 -593q65 -43 143 -43q106 0 179 73q49 49 64 123.5t15 180.5q0 182 -52 259z" />
    <glyph glyph-name="ugrave" unicode="&#xf9;" horiz-adv-x="1130" 
d="M170 355v539q0 45 13 67q19 31 60 31q43 0 60 -31q13 -22 13 -67v-514q0 -129 63 -195.5t178 -66.5t180.5 67.5t65.5 194.5v514q0 45 13 67q19 31 60 31t60 -31q13 -22 13 -67v-804q0 -46 -13 -67q-19 -31 -60 -31t-60 31q-13 21 -13 67v18q-108 -120 -276 -120
q-161 0 -255 92q-102 99 -102 275zM356 1446q0 37 34 58q18 11 38 11q22 0 38.5 -13t34.5 -43l97 -155q25 -40 25 -62q0 -37 -34 -58q-18 -11 -38 -11q-22 0 -38.5 13t-34.5 43l-97 155q-25 40 -25 62z" />
    <glyph glyph-name="uacute" unicode="&#xfa;" horiz-adv-x="1130" 
d="M170 355v539q0 45 13 67q19 31 60 31q43 0 60 -31q13 -22 13 -67v-514q0 -129 63 -195.5t178 -66.5t180.5 67.5t65.5 194.5v514q0 45 13 67q19 31 60 31t60 -31q13 -22 13 -67v-804q0 -46 -13 -67q-19 -31 -60 -31t-60 31q-13 21 -13 67v18q-108 -120 -276 -120
q-161 0 -255 92q-102 99 -102 275zM521 1303l102 163q18 30 33 41q16 12 36 12t36 -11q35 -21 33 -57q-1 -22 -24 -57l-102 -163q-18 -30 -33 -41q-16 -12 -36 -12t-36 11q-35 21 -33 57q1 22 24 57z" />
    <glyph glyph-name="ucircumflex" unicode="&#xfb;" horiz-adv-x="1130" 
d="M170 355v539q0 45 13 67q19 31 60 31q43 0 60 -31q13 -22 13 -67v-514q0 -129 63 -195.5t178 -66.5t180.5 67.5t65.5 194.5v514q0 45 13 67q19 31 60 31t60 -31q13 -22 13 -67v-804q0 -46 -13 -67q-19 -31 -60 -31t-60 31q-13 21 -13 67v18q-108 -120 -276 -120
q-161 0 -255 92q-102 99 -102 275zM558 1360l-155 -155q-27 -27 -49 -33q-30 -6 -53 17q-24 24 -17 54q6 23 32 49l187 186q27 27 55 27t55 -27l187 -186q26 -26 32 -49q7 -30 -17 -54q-23 -23 -53 -17q-22 6 -49 33z" />
    <glyph glyph-name="udieresis" unicode="&#xfc;" horiz-adv-x="1130" 
d="M170 355v539q0 45 13 67q19 31 60 31q43 0 60 -31q13 -22 13 -67v-514q0 -129 63 -195.5t178 -66.5t180.5 67.5t65.5 194.5v514q0 45 13 67q19 31 60 31t60 -31q13 -22 13 -67v-804q0 -46 -13 -67q-19 -31 -60 -31t-60 31q-13 21 -13 67v18q-108 -120 -276 -120
q-161 0 -255 92q-102 99 -102 275zM254 1289q0 38 26.5 64.5t63.5 26.5q38 0 64.5 -27t26.5 -64t-26.5 -63.5t-64.5 -26.5t-64 26.5t-26 63.5zM681 1289q0 38 26.5 64.5t63.5 26.5t64 -27t27 -64t-26.5 -63.5t-64.5 -26.5q-37 0 -63.5 26.5t-26.5 63.5z" />
    <glyph glyph-name="yacute" unicode="&#xfd;" horiz-adv-x="873" 
d="M436 195l239 727q11 34 27 52t45 18q21 0 40 -12t26 -31q9 -26 -6 -71l-386 -1115q-26 -77 -70 -118q-70 -67 -181 -67q-49 0 -68 15q-22 19 -22 50q0 34 23 51q19 14 53 14q56 0 91.5 27t57.5 94l62 186l-301 863q-15 45 -6 71q7 19 26 31t40 12q29 0 45 -18t27 -52z
M400 1303l102 163q18 30 33 41q17 12 36 12t36 -11q35 -21 33 -57q-1 -22 -24 -57l-102 -163q-18 -30 -33 -41q-16 -12 -36 -12q-19 0 -36 11q-35 21 -33 57q1 22 24 57z" />
    <glyph glyph-name="thorn" unicode="&#xfe;" horiz-adv-x="1095" 
d="M821 492q0 64 -5 113.5t-20.5 100.5t-41.5 84.5t-72 54.5t-108 21t-108 -21t-72 -54.5t-41.5 -84.5t-20.5 -100.5t-5 -113.5t5 -113.5t20.5 -100.5t41.5 -84.5t72 -54.5t108 -21t108 21t72 54.5t41.5 84.5t20.5 100.5t5 113.5zM967 492q0 -296 -122 -418
q-86 -86 -240 -86q-88 0 -154 27t-124 99v-464q0 -46 -13 -67q-19 -31 -60 -31t-60 31q-13 21 -13 67v1684q0 46 13 67q19 31 60 31t60 -31q13 -21 13 -67v-464q58 72 124 99t154 27q154 0 240 -86q122 -122 122 -418z" />
    <glyph glyph-name="ydieresis" unicode="&#xff;" horiz-adv-x="873" 
d="M436 195l239 727q11 34 27 52t45 18q21 0 40 -12t26 -31q9 -26 -6 -71l-386 -1115q-26 -77 -70 -118q-70 -67 -181 -67q-49 0 -68 15q-22 19 -22 50q0 34 23 51q19 14 53 14q56 0 91.5 27t57.5 94l62 186l-301 863q-15 45 -6 71q7 19 26 31t40 12q29 0 45 -18t27 -52z
M133 1289q0 38 26.5 64.5t63.5 26.5t64 -27t27 -64t-26.5 -63.5t-64.5 -26.5q-37 0 -63.5 26.5t-26.5 63.5zM560 1289q0 38 26.5 64.5t63.5 26.5q38 0 64.5 -27t26.5 -64t-26.5 -63.5t-64.5 -26.5t-64 26.5t-26 63.5z" />
    <glyph glyph-name="Amacron" unicode="&#x100;" horiz-adv-x="1222" 
d="M62 118l462 1234q13 35 30 55q23 25 57 25t57 -25q17 -21 30 -55l462 -1234q8 -23 11.5 -38t-0.5 -33t-18 -32q-23 -23 -56 -23q-21 0 -39 13q-20 16 -37 61l-94 256h-633l-94 -256q-17 -45 -37 -61q-18 -13 -39 -13q-33 0 -56 23q-14 14 -17.5 32.5t0 33t11.5 37.5z
M611 1187l-269 -733h537zM827 1600h-434q-39 0 -58 11q-26 17 -26 50t26 50q19 11 58 11h434q39 0 58 -11q26 -17 26 -50t-26 -50q-19 -11 -58 -11z" />
    <glyph glyph-name="amacron" unicode="&#x101;" horiz-adv-x="1053" 
d="M99 279q0 131 90.5 208t249.5 77h298v80q0 115 -57.5 171t-184.5 56q-73 0 -122 -20t-101 -67q-29 -26 -61 -26q-27 0 -44 18q-18 21 -18 46q0 48 94 110q101 64 253 64q190 0 288 -83.5t98 -245.5v-577q0 -46 -13 -67q-19 -31 -60 -31t-60 31q-13 21 -13 67v2
q-59 -58 -122.5 -81t-159.5 -23q-102 0 -167.5 21.5t-112.5 68.5q-75 78 -75 201zM242 280q0 -169 227 -169q72 0 123.5 13.5t93.5 53.5q51 49 51 171v105h-282q-105 0 -159 -44.5t-54 -129.5zM723 1227h-434q-39 0 -58 11q-26 17 -26 50t26 50q19 11 58 11h434q39 0 58 -11
q26 -17 26 -50t-26 -50q-19 -11 -58 -11z" />
    <glyph glyph-name="Abreve" unicode="&#x102;" horiz-adv-x="1222" 
d="M62 118l462 1234q13 35 30 55q23 25 57 25t57 -25q17 -21 30 -55l462 -1234q8 -23 11.5 -38t-0.5 -33t-18 -32q-23 -23 -56 -23q-21 0 -39 13q-20 16 -37 61l-94 256h-633l-94 -256q-17 -45 -37 -61q-18 -13 -39 -13q-33 0 -56 23q-14 14 -17.5 32.5t0 33t11.5 37.5z
M611 1187l-269 -733h537zM610 1553q-135 0 -244 106q-31 29 -33 55q-3 25 16 45q19 21 45 19q21 -2 47 -26q85 -80 169 -80t169 80q26 24 47 26q26 2 45 -19q19 -20 16 -45q-2 -26 -33 -55q-109 -106 -244 -106z" />
    <glyph glyph-name="abreve" unicode="&#x103;" horiz-adv-x="1053" 
d="M99 279q0 131 90.5 208t249.5 77h298v80q0 115 -57.5 171t-184.5 56q-73 0 -122 -20t-101 -67q-29 -26 -61 -26q-27 0 -44 18q-18 21 -18 46q0 48 94 110q101 64 253 64q190 0 288 -83.5t98 -245.5v-577q0 -46 -13 -67q-19 -31 -60 -31t-60 31q-13 21 -13 67v2
q-59 -58 -122.5 -81t-159.5 -23q-102 0 -167.5 21.5t-112.5 68.5q-75 78 -75 201zM242 280q0 -169 227 -169q72 0 123.5 13.5t93.5 53.5q51 49 51 171v105h-282q-105 0 -159 -44.5t-54 -129.5zM506 1180q-135 0 -244 106q-31 29 -33 55q-3 25 16 45q19 21 45 19
q21 -2 47 -26q85 -80 169 -80t169 80q26 24 47 26q26 2 45 -19q19 -20 16 -45q-2 -26 -33 -55q-109 -106 -244 -106z" />
    <glyph glyph-name="Aogonek" unicode="&#x104;" horiz-adv-x="1222" 
d="M62 118l462 1234q13 35 30 55q23 25 57 25t57 -25q17 -21 30 -55l462 -1234q8 -23 11.5 -38t-0.5 -33t-18 -32q-23 -23 -56 -23q-21 0 -39 13q-20 16 -37 61l-94 256h-633l-94 -256q-17 -45 -37 -61q-18 -13 -39 -13q-33 0 -56 23q-14 14 -17.5 32.5t0 33t11.5 37.5z
M611 1187l-269 -733h537zM931 -338l102 163q18 30 33 41q16 12 36 12t36 -11q35 -21 33 -57q-1 -22 -24 -57l-102 -163q-18 -30 -33 -41q-16 -12 -36 -12t-36 11q-35 21 -33 57q1 22 24 57z" />
    <glyph glyph-name="aogonek" unicode="&#x105;" horiz-adv-x="1053" 
d="M99 279q0 131 90.5 208t249.5 77h298v80q0 115 -57.5 171t-184.5 56q-73 0 -122 -20t-101 -67q-29 -26 -61 -26q-27 0 -44 18q-18 21 -18 46q0 48 94 110q101 64 253 64q190 0 288 -83.5t98 -245.5v-577q0 -46 -13 -67q-19 -31 -60 -31t-60 31q-13 21 -13 67v2
q-59 -58 -122.5 -81t-159.5 -23q-102 0 -167.5 21.5t-112.5 68.5q-75 78 -75 201zM242 280q0 -169 227 -169q72 0 123.5 13.5t93.5 53.5q51 49 51 171v105h-282q-105 0 -159 -44.5t-54 -129.5zM621 -338l102 163q18 30 33 41q16 12 36 12t36 -11q35 -21 33 -57
q-1 -22 -24 -57l-102 -163q-18 -30 -33 -41q-16 -12 -36 -12t-36 11q-35 21 -33 57q1 22 24 57z" />
    <glyph glyph-name="Cacute" unicode="&#x106;" horiz-adv-x="1276" 
d="M152 712q0 138 3.5 212.5t18.5 148.5t43.5 123t79.5 100q138 140 354 140q242 0 382 -171q42 -51 66.5 -110t24.5 -97q0 -36 -20 -56t-51 -20q-29 0 -47 16q-21 18 -36 64q-39 114 -121 176t-199 62q-145 0 -244 -102q-65 -66 -82.5 -161t-17.5 -325t17.5 -325t82.5 -161
q99 -102 244 -102q117 0 199 62t121 176q15 46 36 64q18 16 47 16q31 0 51 -20t20 -56q0 -38 -24.5 -97t-66.5 -110q-140 -171 -382 -171q-216 0 -354 140q-51 51 -79.5 100t-43.5 123t-18.5 148.5t-3.5 212.5zM613 1670l102 163q18 30 33 41q16 12 36 12t36 -11
q35 -21 33 -57q-1 -22 -24 -57l-102 -163q-18 -30 -33 -41q-16 -12 -36 -12t-36 11q-35 21 -33 57q1 22 24 57z" />
    <glyph glyph-name="cacute" unicode="&#x107;" horiz-adv-x="978" 
d="M126 492q0 245 119.5 374.5t315.5 129.5q74 0 130 -19t110 -62q40 -31 55 -49.5t15 -43.5q0 -26 -21 -47q-20 -18 -45 -18q-24 0 -70 38q-48 40 -86.5 55.5t-87.5 15.5q-147 0 -225 -109q-34 -49 -49 -110t-15 -155q0 -93 15 -154t49 -110q78 -110 225 -110q50 0 89 15.5
t85 55.5q43 38 70 38q25 0 45 -18q21 -21 21 -47q0 -25 -17 -46t-53 -48q-101 -80 -240 -80q-196 0 -315.5 130t-119.5 374zM525 1303l102 163q18 30 33 41q16 12 36 12t36 -11q35 -21 33 -57q-1 -22 -24 -57l-102 -163q-18 -30 -33 -41q-16 -12 -36 -12t-36 11
q-35 21 -33 57q1 22 24 57z" />
    <glyph glyph-name="Ccircumflex" unicode="&#x108;" horiz-adv-x="1276" 
d="M152 712q0 138 3.5 212.5t18.5 148.5t43.5 123t79.5 100q138 140 354 140q242 0 382 -171q42 -51 66.5 -110t24.5 -97q0 -36 -20 -56t-51 -20q-29 0 -47 16q-21 18 -36 64q-39 114 -121 176t-199 62q-145 0 -244 -102q-65 -66 -82.5 -161t-17.5 -325t17.5 -325t82.5 -161
q99 -102 244 -102q117 0 199 62t121 176q15 46 36 64q18 16 47 16q31 0 51 -20t20 -56q0 -38 -24.5 -97t-66.5 -110q-140 -171 -382 -171q-216 0 -354 140q-51 51 -79.5 100t-43.5 123t-18.5 148.5t-3.5 212.5zM650 1734l-155 -155q-27 -27 -49 -33q-30 -6 -53 17
q-24 24 -17 54q6 23 32 49l187 186q27 27 55 27t55 -27l187 -186q26 -26 32 -49q7 -30 -17 -54q-23 -23 -53 -17q-22 6 -49 33z" />
    <glyph glyph-name="ccircumflex" unicode="&#x109;" horiz-adv-x="978" 
d="M126 492q0 245 119.5 374.5t315.5 129.5q74 0 130 -19t110 -62q40 -31 55 -49.5t15 -43.5q0 -26 -21 -47q-20 -18 -45 -18q-24 0 -70 38q-48 40 -86.5 55.5t-87.5 15.5q-147 0 -225 -109q-34 -49 -49 -110t-15 -155q0 -93 15 -154t49 -110q78 -110 225 -110q50 0 89 15.5
t85 55.5q43 38 70 38q25 0 45 -18q21 -21 21 -47q0 -25 -17 -46t-53 -48q-101 -80 -240 -80q-196 0 -315.5 130t-119.5 374zM562 1360l-155 -155q-27 -27 -49 -33q-30 -6 -53 17q-24 24 -17 54q6 23 32 49l187 186q27 27 55 27t55 -27l187 -186q26 -26 32 -49q7 -30 -17 -54
q-23 -23 -53 -17q-22 6 -49 33z" />
    <glyph glyph-name="Cdotaccent" unicode="&#x10a;" horiz-adv-x="1276" 
d="M152 712q0 138 3.5 212.5t18.5 148.5t43.5 123t79.5 100q138 140 354 140q242 0 382 -171q42 -51 66.5 -110t24.5 -97q0 -36 -20 -56t-51 -20q-29 0 -47 16q-21 18 -36 64q-39 114 -121 176t-199 62q-145 0 -244 -102q-65 -66 -82.5 -161t-17.5 -325t17.5 -325t82.5 -161
q99 -102 244 -102q117 0 199 62t121 176q15 46 36 64q18 16 47 16q31 0 51 -20t20 -56q0 -38 -24.5 -97t-66.5 -110q-140 -171 -382 -171q-216 0 -354 140q-51 51 -79.5 100t-43.5 123t-18.5 148.5t-3.5 212.5zM559 1676q0 38 26.5 64t63.5 26t63.5 -26t26.5 -64t-26.5 -64
t-63.5 -26t-63.5 26t-26.5 64z" />
    <glyph glyph-name="cdotaccent" unicode="&#x10b;" horiz-adv-x="978" 
d="M126 492q0 245 119.5 374.5t315.5 129.5q74 0 130 -19t110 -62q40 -31 55 -49.5t15 -43.5q0 -26 -21 -47q-20 -18 -45 -18q-24 0 -70 38q-48 40 -86.5 55.5t-87.5 15.5q-147 0 -225 -109q-34 -49 -49 -110t-15 -155q0 -93 15 -154t49 -110q78 -110 225 -110q50 0 89 15.5
t85 55.5q43 38 70 38q25 0 45 -18q21 -21 21 -47q0 -25 -17 -46t-53 -48q-101 -80 -240 -80q-196 0 -315.5 130t-119.5 374zM472 1304q0 38 26 64t64 26t64 -26t26 -64t-26 -64t-64 -26t-64 26t-26 64z" />
    <glyph glyph-name="Ccaron" unicode="&#x10c;" horiz-adv-x="1276" 
d="M152 712q0 138 3.5 212.5t18.5 148.5t43.5 123t79.5 100q138 140 354 140q242 0 382 -171q42 -51 66.5 -110t24.5 -97q0 -36 -20 -56t-51 -20q-29 0 -47 16q-21 18 -36 64q-39 114 -121 176t-199 62q-145 0 -244 -102q-65 -66 -82.5 -161t-17.5 -325t17.5 -325t82.5 -161
q99 -102 244 -102q117 0 199 62t121 176q15 46 36 64q18 16 47 16q31 0 51 -20t20 -56q0 -38 -24.5 -97t-66.5 -110q-140 -171 -382 -171q-216 0 -354 140q-51 51 -79.5 100t-43.5 123t-18.5 148.5t-3.5 212.5zM495 1842l155 -155l155 155q27 27 49 33q31 6 53 -17
q23 -23 17 -54q-4 -21 -32 -49l-187 -186q-27 -27 -55 -27t-55 27l-187 186q-28 28 -32 49q-6 31 17 54q22 23 53 17q22 -6 49 -33z" />
    <glyph glyph-name="ccaron" unicode="&#x10d;" horiz-adv-x="978" 
d="M126 492q0 245 119.5 374.5t315.5 129.5q74 0 130 -19t110 -62q40 -31 55 -49.5t15 -43.5q0 -26 -21 -47q-20 -18 -45 -18q-24 0 -70 38q-48 40 -86.5 55.5t-87.5 15.5q-147 0 -225 -109q-34 -49 -49 -110t-15 -155q0 -93 15 -154t49 -110q78 -110 225 -110q50 0 89 15.5
t85 55.5q43 38 70 38q25 0 45 -18q21 -21 21 -47q0 -25 -17 -46t-53 -48q-101 -80 -240 -80q-196 0 -315.5 130t-119.5 374zM407 1468l155 -155l155 155q27 27 49 33q31 6 53 -17q23 -23 17 -54q-4 -21 -32 -49l-187 -186q-27 -27 -55 -27t-55 27l-187 186q-28 28 -32 49
q-6 31 17 54q22 23 53 17q22 -6 49 -33z" />
    <glyph glyph-name="Dcaron" unicode="&#x10e;" horiz-adv-x="1350" 
d="M299 0q-51 0 -72 21t-21 72v1238q0 51 21 72t72 21h397q121 0 212.5 -36t163.5 -114q31 -33 53 -72t35.5 -88t21.5 -88.5t11.5 -103t4 -101t0.5 -109.5t-0.5 -109.5t-4 -101t-11.5 -103t-21.5 -88.5t-35.5 -88t-53 -72q-72 -78 -163.5 -114t-212.5 -36h-397zM670 1288
h-310v-1152h310q187 0 281 105q32 36 52 84.5t28.5 117.5t10.5 123t2 146t-2 146t-10.5 123t-28.5 117.5t-52 84.5q-94 105 -281 105zM518 1842l155 -155l155 155q27 27 49 33q31 6 53 -17q23 -23 17 -54q-4 -21 -32 -49l-187 -186q-27 -27 -55 -27t-55 27l-187 186
q-28 28 -32 49q-6 31 17 54q22 23 53 17q22 -6 49 -33z" />
    <glyph glyph-name="dcaron" unicode="&#x10f;" horiz-adv-x="1095" 
d="M128 492q0 296 122 418q86 86 240 86q88 0 154 -27t124 -99v464q0 46 13 67q19 31 60 31t60 -31q13 -21 13 -67v-1244q0 -46 -13 -67q-19 -31 -60 -31t-60 31q-13 21 -13 67v28q-58 -74 -123.5 -102t-154.5 -28q-154 0 -240 86q-122 122 -122 418zM274 492
q0 -64 5 -113.5t20.5 -100.5t41.5 -84.5t72 -54.5t108 -21t108 21t72 54.5t41.5 84.5t20.5 100.5t5 113.5t-5 113.5t-20.5 100.5t-41.5 84.5t-72 54.5t-108 21t-108 -21t-72 -54.5t-41.5 -84.5t-20.5 -100.5t-5 -113.5zM1237 1361l-57 -170q-12 -36 -27 -51q-15 -17 -42 -17
q-23 0 -40.5 12t-23.5 32q-7 22 7 66l57 170q12 36 27 51q15 17 42 17q23 0 40.5 -12t23.5 -32q7 -22 -7 -66z" />
    <glyph glyph-name="Dcroat" unicode="&#x110;" horiz-adv-x="1378" 
d="M327 0q-51 0 -72 21t-21 72v563h-86q-43 0 -60 11q-26 17 -26 51t26 51q17 11 60 11h86v551q0 51 21 72t72 21h397q121 0 212.5 -36t163.5 -114q31 -33 53 -72t35.5 -88t21.5 -88.5t11.5 -103t4 -101t0.5 -109.5t-0.5 -109.5t-4 -101t-11.5 -103t-21.5 -88.5t-35.5 -88
t-53 -72q-72 -78 -163.5 -114t-212.5 -36h-397zM698 1288h-310v-508h250q43 0 60 -11q26 -17 26 -51t-26 -51q-17 -11 -60 -11h-250v-520h310q186 0 281 105q32 36 52 84.5t28.5 117.5t10.5 123t2 146t-2 146t-10.5 123t-28.5 117.5t-52 84.5q-95 105 -281 105z" />
    <glyph glyph-name="dcroat" unicode="&#x111;" horiz-adv-x="1095" 
d="M128 492q0 298 122 418q86 86 240 86q88 0 154 -27t124 -99v269h-185q-38 0 -53 10q-24 14 -24 46t24 46q15 10 53 10h185v83q0 46 13 67q19 31 60 31t60 -31q13 -21 13 -67v-83h54q38 0 53 -10q24 -14 24 -46t-24 -46q-15 -10 -53 -10h-54v-1049q0 -46 -13 -67
q-19 -31 -60 -31t-60 31q-13 21 -13 67v28q-58 -74 -123.5 -102t-154.5 -28q-154 0 -240 86q-122 122 -122 418zM274 492q0 -64 5 -113.5t20.5 -100.5t41.5 -84.5t71.5 -54.5t107.5 -21q63 0 108.5 21t72 54.5t42 84.5t20.5 100.5t5 113.5t-5 113.5t-20.5 100.5t-42 84.5
t-72 54.5t-108.5 21q-62 0 -107.5 -21t-71.5 -54.5t-41.5 -84.5t-20.5 -100.5t-5 -113.5z" />
    <glyph glyph-name="Emacron" unicode="&#x112;" horiz-adv-x="1200" 
d="M299 1424h704q46 0 66 -12q29 -19 29 -56t-29 -56q-20 -12 -66 -12h-643v-502h534q46 0 66 -12q29 -19 29 -56t-29 -56q-20 -12 -66 -12h-534v-514h643q46 0 66 -12q29 -19 29 -56t-29 -56q-20 -12 -66 -12h-704q-51 0 -72 21t-21 72v1238q0 51 21 72t72 21zM844 1600
h-434q-39 0 -58 11q-26 17 -26 50t26 50q19 11 58 11h434q39 0 58 -11q26 -17 26 -50t-26 -50q-19 -11 -58 -11z" />
    <glyph glyph-name="emacron" unicode="&#x113;" horiz-adv-x="1058" 
d="M852 455h-581q0 -163 75.5 -252t216.5 -89q127 0 211 71q42 35 68 35q24 0 43 -19t19 -44q0 -49 -102 -112q-96 -57 -245 -57q-203 0 -317 125.5t-114 378.5q0 241 108.5 372.5t297.5 131.5q186 0 294 -124.5t110 -331.5q0 -46 -20 -66q-19 -19 -64 -19zM271 565h522
q-4 94 -31 160q-28 68 -89 107.5t-141 39.5t-141.5 -40t-88.5 -107q-27 -66 -31 -160zM748 1227h-434q-39 0 -58 11q-26 17 -26 50t26 50q19 11 58 11h434q39 0 58 -11q26 -17 26 -50t-26 -50q-19 -11 -58 -11z" />
    <glyph glyph-name="Ebreve" unicode="&#x114;" horiz-adv-x="1200" 
d="M299 1424h704q46 0 66 -12q29 -19 29 -56t-29 -56q-20 -12 -66 -12h-643v-502h534q46 0 66 -12q29 -19 29 -56t-29 -56q-20 -12 -66 -12h-534v-514h643q46 0 66 -12q29 -19 29 -56t-29 -56q-20 -12 -66 -12h-704q-51 0 -72 21t-21 72v1238q0 51 21 72t72 21zM627 1553
q-135 0 -244 106q-31 29 -33 55q-3 25 16 45q19 21 45 19q21 -2 47 -26q85 -80 169 -80t169 80q26 24 47 26q26 2 45 -19q19 -20 16 -45q-2 -26 -33 -55q-109 -106 -244 -106z" />
    <glyph glyph-name="ebreve" unicode="&#x115;" horiz-adv-x="1058" 
d="M852 455h-581q0 -163 75.5 -252t216.5 -89q127 0 211 71q42 35 68 35q24 0 43 -19t19 -44q0 -49 -102 -112q-96 -57 -245 -57q-203 0 -317 125.5t-114 378.5q0 241 108.5 372.5t297.5 131.5q186 0 294 -124.5t110 -331.5q0 -46 -20 -66q-19 -19 -64 -19zM271 565h522
q-4 94 -31 160q-28 68 -89 107.5t-141 39.5t-141.5 -40t-88.5 -107q-27 -66 -31 -160zM531 1180q-135 0 -244 106q-31 29 -33 55q-3 25 16 45q19 21 45 19q21 -2 47 -26q85 -80 169 -80t169 80q26 24 47 26q26 2 45 -19q19 -20 16 -45q-2 -26 -33 -55q-109 -106 -244 -106z
" />
    <glyph glyph-name="Edotaccent" unicode="&#x116;" horiz-adv-x="1200" 
d="M299 1424h704q46 0 66 -12q29 -19 29 -56t-29 -56q-20 -12 -66 -12h-643v-502h534q46 0 66 -12q29 -19 29 -56t-29 -56q-20 -12 -66 -12h-534v-514h643q46 0 66 -12q29 -19 29 -56t-29 -56q-20 -12 -66 -12h-704q-51 0 -72 21t-21 72v1238q0 51 21 72t72 21zM537 1677
q0 37 26.5 63.5t63.5 26.5t63.5 -26.5t26.5 -63.5t-26.5 -63.5t-63.5 -26.5t-63.5 26.5t-26.5 63.5z" />
    <glyph glyph-name="edotaccent" unicode="&#x117;" horiz-adv-x="1058" 
d="M852 455h-581q0 -163 75.5 -252t216.5 -89q127 0 211 71q42 35 68 35q24 0 43 -19t19 -44q0 -49 -102 -112q-96 -57 -245 -57q-203 0 -317 125.5t-114 378.5q0 241 108.5 372.5t297.5 131.5q186 0 294 -124.5t110 -331.5q0 -46 -20 -66q-19 -19 -64 -19zM271 565h522
q-4 94 -31 160q-28 68 -89 107.5t-141 39.5t-141.5 -40t-88.5 -107q-27 -66 -31 -160zM441 1304q0 38 26.5 64t63.5 26t63.5 -26t26.5 -64t-26.5 -64t-63.5 -26t-63.5 26t-26.5 64z" />
    <glyph glyph-name="Eogonek" unicode="&#x118;" horiz-adv-x="1200" 
d="M299 1424h704q46 0 66 -12q29 -19 29 -56t-29 -56q-20 -12 -66 -12h-643v-502h534q46 0 66 -12q29 -19 29 -56t-29 -56q-20 -12 -66 -12h-534v-514h643q46 0 66 -12q29 -19 29 -56t-29 -56q-20 -12 -66 -12h-704q-51 0 -72 21t-21 72v1238q0 51 21 72t72 21zM835 -338
l102 163q18 30 33 41q17 12 36 12q20 0 36 -11q35 -21 33 -57q-1 -22 -24 -57l-102 -163q-18 -30 -33 -41q-16 -12 -36 -12t-36 11q-35 21 -33 57q1 22 24 57z" />
    <glyph glyph-name="eogonek" unicode="&#x119;" horiz-adv-x="1058" 
d="M852 455h-581q0 -163 75.5 -252t216.5 -89q127 0 211 71q42 35 68 35q24 0 43 -19t19 -44q0 -49 -102 -112q-96 -57 -245 -57q-203 0 -317 125.5t-114 378.5q0 241 108.5 372.5t297.5 131.5q186 0 294 -124.5t110 -331.5q0 -46 -20 -66q-19 -19 -64 -19zM271 565h522
q-4 94 -31 160q-28 68 -89 107.5t-141 39.5t-141.5 -40t-88.5 -107q-27 -66 -31 -160zM496 -338l102 163q18 30 33 41q17 12 36 12t36 -11q35 -21 33 -57q-1 -22 -24 -57l-102 -163q-18 -30 -33 -41q-17 -12 -36 -12t-36 11q-35 21 -33 57q1 22 24 57z" />
    <glyph glyph-name="Ecaron" unicode="&#x11a;" horiz-adv-x="1200" 
d="M299 1424h704q46 0 66 -12q29 -19 29 -56t-29 -56q-20 -12 -66 -12h-643v-502h534q46 0 66 -12q29 -19 29 -56t-29 -56q-20 -12 -66 -12h-534v-514h643q46 0 66 -12q29 -19 29 -56t-29 -56q-20 -12 -66 -12h-704q-51 0 -72 21t-21 72v1238q0 51 21 72t72 21zM472 1842
l155 -155l155 155q27 27 49 33q31 6 53 -17q23 -23 17 -54q-4 -21 -32 -49l-187 -186q-27 -27 -55 -27t-55 27l-187 186q-28 28 -32 49q-6 31 17 54q22 23 53 17q22 -6 49 -33z" />
    <glyph glyph-name="ecaron" unicode="&#x11b;" horiz-adv-x="1058" 
d="M852 455h-581q0 -163 75.5 -252t216.5 -89q127 0 211 71q42 35 68 35q24 0 43 -19t19 -44q0 -49 -102 -112q-96 -57 -245 -57q-203 0 -317 125.5t-114 378.5q0 241 108.5 372.5t297.5 131.5q186 0 294 -124.5t110 -331.5q0 -46 -20 -66q-19 -19 -64 -19zM271 565h522
q-4 94 -31 160q-28 68 -89 107.5t-141 39.5t-141.5 -40t-88.5 -107q-27 -66 -31 -160zM376 1468l155 -155l155 155q27 27 49 33q31 6 53 -17q23 -23 17 -54q-4 -21 -32 -49l-187 -186q-27 -27 -55 -27t-55 27l-187 186q-28 28 -32 49q-6 31 17 54q22 23 53 17q22 -6 49 -33z
" />
    <glyph glyph-name="Gcircumflex" unicode="&#x11c;" horiz-adv-x="1300" 
d="M306 712q0 -231 18 -325.5t82 -160.5q100 -102 246 -102q148 0 247 99q59 60 78.5 140.5t19.5 238.5h-263q-46 0 -66 12q-29 19 -29 56t29 56q20 12 66 12h319q51 0 72 -21t21 -72v-26q0 -202 -27.5 -303.5t-113.5 -186.5q-141 -141 -353 -141q-213 0 -355 140
q-41 41 -67.5 83t-42.5 84.5t-23.5 110t-9.5 131t-2 175.5q0 138 3.5 212.5t18.5 148.5t43.5 123t79.5 100q138 140 354 140q242 0 382 -171q42 -51 66.5 -110t24.5 -97q0 -36 -20 -56t-51 -20q-29 0 -47 16q-21 18 -36 64q-39 114 -121 176t-199 62q-145 0 -244 -102
q-65 -66 -82.5 -161t-17.5 -325zM650 1734l-155 -155q-27 -27 -49 -33q-30 -6 -53 17q-24 24 -17 54q6 23 32 49l187 186q27 27 55 27t55 -27l187 -186q26 -26 32 -49q7 -30 -17 -54q-23 -23 -53 -17q-22 6 -49 33z" />
    <glyph glyph-name="gcircumflex" unicode="&#x11d;" horiz-adv-x="1093" 
d="M493 -325q136 0 204.5 84t68.5 217v157q-55 -73 -123 -102t-155 -29q-74 0 -137 24t-103 64q-68 68 -94 171t-26 239t26 239t94 171q40 40 103.5 63t138.5 23q89 0 154.5 -27.5t121.5 -100.5v26q0 46 13 67q19 31 60 31t60 -31q13 -21 13 -67v-923q0 -187 -112 -304.5
t-304 -117.5q-130 0 -219 48q-104 58 -104 108q0 29 19.5 47.5t41.5 18.5q25 0 73 -37q74 -59 186 -59zM764 500q0 61 -4.5 108.5t-20 98t-41 83.5t-71 54.5t-107.5 21.5t-107.5 -21.5t-71.5 -54.5t-41.5 -83.5t-20.5 -98.5t-5 -109t5 -109t20.5 -98t41.5 -83t71.5 -54
t107.5 -21t107.5 21t71 54t41 83.5t20 98t4.5 109.5zM520 1360l-155 -155q-27 -27 -49 -33q-30 -6 -53 17q-24 24 -17 54q6 23 32 49l187 186q27 27 55 27t55 -27l187 -186q26 -26 32 -49q7 -30 -17 -54q-23 -23 -53 -17q-22 6 -49 33z" />
    <glyph glyph-name="Gbreve" unicode="&#x11e;" horiz-adv-x="1300" 
d="M306 712q0 -231 18 -325.5t82 -160.5q100 -102 246 -102q148 0 247 99q59 60 78.5 140.5t19.5 238.5h-263q-46 0 -66 12q-29 19 -29 56t29 56q20 12 66 12h319q51 0 72 -21t21 -72v-26q0 -202 -27.5 -303.5t-113.5 -186.5q-141 -141 -353 -141q-213 0 -355 140
q-41 41 -67.5 83t-42.5 84.5t-23.5 110t-9.5 131t-2 175.5q0 138 3.5 212.5t18.5 148.5t43.5 123t79.5 100q138 140 354 140q242 0 382 -171q42 -51 66.5 -110t24.5 -97q0 -36 -20 -56t-51 -20q-29 0 -47 16q-21 18 -36 64q-39 114 -121 176t-199 62q-145 0 -244 -102
q-65 -66 -82.5 -161t-17.5 -325zM650 1553q-135 0 -244 106q-31 29 -33 55q-3 25 16 45q19 21 45 19q21 -2 47 -26q85 -80 169 -80t169 80q26 24 47 26q26 2 45 -19q19 -20 16 -45q-2 -26 -33 -55q-109 -106 -244 -106z" />
    <glyph glyph-name="gbreve" unicode="&#x11f;" horiz-adv-x="1093" 
d="M493 -325q136 0 204.5 84t68.5 217v157q-55 -73 -123 -102t-155 -29q-74 0 -137 24t-103 64q-68 68 -94 171t-26 239t26 239t94 171q40 40 103.5 63t138.5 23q89 0 154.5 -27.5t121.5 -100.5v26q0 46 13 67q19 31 60 31t60 -31q13 -21 13 -67v-923q0 -187 -112 -304.5
t-304 -117.5q-130 0 -219 48q-104 58 -104 108q0 29 19.5 47.5t41.5 18.5q25 0 73 -37q74 -59 186 -59zM764 500q0 61 -4.5 108.5t-20 98t-41 83.5t-71 54.5t-107.5 21.5t-107.5 -21.5t-71.5 -54.5t-41.5 -83.5t-20.5 -98.5t-5 -109t5 -109t20.5 -98t41.5 -83t71.5 -54
t107.5 -21t107.5 21t71 54t41 83.5t20 98t4.5 109.5zM520 1180q-135 0 -244 106q-31 29 -33 55q-3 25 16 45q19 21 45 19q21 -2 47 -26q85 -80 169 -80t169 80q26 24 47 26q26 2 45 -19q19 -20 16 -45q-2 -26 -33 -55q-109 -106 -244 -106z" />
    <glyph glyph-name="Gdotaccent" unicode="&#x120;" horiz-adv-x="1300" 
d="M306 712q0 -231 18 -325.5t82 -160.5q100 -102 246 -102q148 0 247 99q59 60 78.5 140.5t19.5 238.5h-263q-46 0 -66 12q-29 19 -29 56t29 56q20 12 66 12h319q51 0 72 -21t21 -72v-26q0 -202 -27.5 -303.5t-113.5 -186.5q-141 -141 -353 -141q-213 0 -355 140
q-41 41 -67.5 83t-42.5 84.5t-23.5 110t-9.5 131t-2 175.5q0 138 3.5 212.5t18.5 148.5t43.5 123t79.5 100q138 140 354 140q242 0 382 -171q42 -51 66.5 -110t24.5 -97q0 -36 -20 -56t-51 -20q-29 0 -47 16q-21 18 -36 64q-39 114 -121 176t-199 62q-145 0 -244 -102
q-65 -66 -82.5 -161t-17.5 -325zM560 1677q0 37 26 63.5t64 26.5t64 -26.5t26 -63.5t-26 -63.5t-64 -26.5t-64 26.5t-26 63.5z" />
    <glyph glyph-name="gdotaccent" unicode="&#x121;" horiz-adv-x="1093" 
d="M493 -325q136 0 204.5 84t68.5 217v157q-55 -73 -123 -102t-155 -29q-74 0 -137 24t-103 64q-68 68 -94 171t-26 239t26 239t94 171q40 40 103.5 63t138.5 23q89 0 154.5 -27.5t121.5 -100.5v26q0 46 13 67q19 31 60 31t60 -31q13 -21 13 -67v-923q0 -187 -112 -304.5
t-304 -117.5q-130 0 -219 48q-104 58 -104 108q0 29 19.5 47.5t41.5 18.5q25 0 73 -37q74 -59 186 -59zM764 500q0 61 -4.5 108.5t-20 98t-41 83.5t-71 54.5t-107.5 21.5t-107.5 -21.5t-71.5 -54.5t-41.5 -83.5t-20.5 -98.5t-5 -109t5 -109t20.5 -98t41.5 -83t71.5 -54
t107.5 -21t107.5 21t71 54t41 83.5t20 98t4.5 109.5zM430 1304q0 38 26 64t64 26t64 -26t26 -64t-26 -64t-64 -26t-64 26t-26 64z" />
    <glyph glyph-name="Gcommaaccent" unicode="&#x122;" horiz-adv-x="1300" 
d="M306 712q0 -231 18 -325.5t82 -160.5q100 -102 246 -102q148 0 247 99q59 60 78.5 140.5t19.5 238.5h-263q-46 0 -66 12q-29 19 -29 56t29 56q20 12 66 12h319q51 0 72 -21t21 -72v-26q0 -202 -27.5 -303.5t-113.5 -186.5q-141 -141 -353 -141q-213 0 -355 140
q-41 41 -67.5 83t-42.5 84.5t-23.5 110t-9.5 131t-2 175.5q0 138 3.5 212.5t18.5 148.5t43.5 123t79.5 100q138 140 354 140q242 0 382 -171q42 -51 66.5 -110t24.5 -97q0 -36 -20 -56t-51 -20q-29 0 -47 16q-21 18 -36 64q-39 114 -121 176t-199 62q-145 0 -244 -102
q-65 -66 -82.5 -161t-17.5 -325zM491 -338l102 163q18 30 33 41q16 12 36 12t36 -11q35 -21 33 -57q-1 -22 -24 -57l-102 -163q-18 -30 -33 -41q-16 -12 -36 -12t-36 11q-35 21 -33 57q1 22 24 57z" />
    <glyph glyph-name="gcommaaccent" unicode="&#x123;" horiz-adv-x="1093" 
d="M493 -325q136 0 204.5 84t68.5 217v157q-55 -73 -123 -102t-155 -29q-74 0 -137 24t-103 64q-68 68 -94 171t-26 239t26 239t94 171q40 40 103.5 63t138.5 23q89 0 154.5 -27.5t121.5 -100.5v26q0 46 13 67q19 31 60 31t60 -31q13 -21 13 -67v-923q0 -187 -112 -304.5
t-304 -117.5q-130 0 -219 48q-104 58 -104 108q0 29 19.5 47.5t41.5 18.5q25 0 73 -37q74 -59 186 -59zM764 500q0 61 -4.5 108.5t-20 98t-41 83.5t-71 54.5t-107.5 21.5t-107.5 -21.5t-71.5 -54.5t-41.5 -83.5t-20.5 -98.5t-5 -109t5 -109t20.5 -98t41.5 -83t71.5 -54
t107.5 -21t107.5 21t71 54t41 83.5t20 98t4.5 109.5zM482 1303l102 163q18 30 33 41q17 12 36 12t36 -11q35 -21 33 -57q-1 -22 -24 -57l-102 -163q-18 -30 -33 -41q-16 -12 -36 -12q-19 0 -36 11q-35 21 -33 57q1 22 24 57z" />
    <glyph glyph-name="Hcircumflex" unicode="&#x124;" horiz-adv-x="1392" 
d="M1186 96q0 -50 -14 -72q-20 -32 -63 -32t-63 32q-14 22 -14 72v554h-672v-554q0 -50 -14 -72q-20 -32 -63 -32t-63 32q-14 22 -14 72v1232q0 50 14 72q20 32 63 32t63 -32q14 -22 14 -72v-542h672v542q0 50 14 72q20 32 63 32t63 -32q14 -22 14 -72v-1232zM697 1734
l-155 -155q-27 -27 -49 -33q-30 -6 -53 17q-24 24 -17 54q6 23 32 49l187 186q27 27 55 27t55 -27l187 -186q26 -26 32 -49q7 -30 -17 -54q-23 -23 -53 -17q-22 6 -49 33z" />
    <glyph glyph-name="hcircumflex" unicode="&#x125;" horiz-adv-x="1129" 
d="M327 90q0 -46 -13 -67q-19 -31 -60 -31t-60 31q-13 21 -13 67v1244q0 46 13 67q19 31 60 31t60 -31q13 -21 13 -67v-458q108 120 276 120q167 0 261.5 -98t94.5 -266v-542q0 -46 -13 -67q-19 -31 -60 -31t-60 31q-13 21 -13 67v518q0 128 -62.5 193t-177.5 65
t-180.5 -65.5t-65.5 -192.5v-518zM254 1732l-155 -155q-27 -27 -49 -33q-30 -6 -53 17q-24 24 -17 54q6 23 32 49l187 186q27 27 55 27t55 -27l187 -186q26 -26 32 -49q7 -30 -17 -54q-23 -23 -53 -17q-22 6 -49 33z" />
    <glyph glyph-name="Hbar" unicode="&#x126;" horiz-adv-x="1448" 
d="M1214 96q0 -50 -14 -72q-20 -32 -63 -32t-63 32q-14 22 -14 72v554h-672v-554q0 -50 -14 -72q-20 -32 -63 -32t-63 32q-14 22 -14 72v930h-86q-43 0 -60 11q-26 17 -26 51t26 51q17 11 60 11h86v178q0 50 14 72q20 32 63 32t63 -32q14 -22 14 -72v-178h672v178
q0 50 14 72q20 32 63 32t63 -32q14 -22 14 -72v-178h86q43 0 60 -11q26 -17 26 -51t-26 -51q-17 -11 -60 -11h-86v-930zM388 786h672v240h-672v-240z" />
    <glyph glyph-name="hbar" unicode="&#x127;" horiz-adv-x="1129" 
d="M327 90q0 -46 -13 -67q-19 -31 -60 -31t-60 31q-13 21 -13 67v1049h-55q-38 0 -53 10q-24 14 -24 46t24 46q15 10 53 10h55v83q0 46 13 67q19 31 60 31t60 -31q13 -21 13 -67v-83h186q38 0 53 -10q24 -14 24 -46t-24 -46q-15 -10 -53 -10h-186v-263q108 120 276 120
q167 0 261.5 -98t94.5 -266v-542q0 -46 -13 -67q-19 -31 -60 -31t-60 31q-13 21 -13 67v518q0 128 -62.5 193t-177.5 65t-180.5 -65.5t-65.5 -192.5v-518z" />
    <glyph glyph-name="Itilde" unicode="&#x128;" horiz-adv-x="566" 
d="M360 1328v-1232q0 -50 -14 -72q-20 -32 -63 -32t-63 32q-14 22 -14 72v1232q0 50 14 72q20 32 63 32t63 -32q14 -22 14 -72zM268 1620q-70 41 -111 41q-24 0 -42.5 -6.5t-45.5 -29.5q-31 -26 -51 -26q-22 0 -37 15t-15 39q0 30 36 61q72 62 153 62q41 0 70.5 -10.5
t72.5 -35.5q70 -41 111 -41q24 0 42.5 6.5t45.5 29.5q31 26 51 26q22 0 37 -15t15 -39q0 -30 -36 -61q-72 -62 -153 -62q-41 0 -70.5 10.5t-72.5 35.5z" />
    <glyph glyph-name="itilde" unicode="&#x129;" horiz-adv-x="518" 
d="M332 894v-804q0 -46 -13 -67q-19 -31 -60 -31t-60 31q-13 21 -13 67v804q0 46 13 67q19 31 60 31t60 -31q13 -21 13 -67zM244 1258q-70 41 -111 41q-24 0 -42.5 -6.5t-45.5 -29.5q-31 -26 -51 -26q-22 0 -37 15t-15 39q0 30 36 61q72 62 153 62q41 0 70.5 -10.5
t72.5 -35.5q70 -41 111 -41q24 0 42.5 6.5t45.5 29.5q31 26 51 26q22 0 37 -15t15 -39q0 -30 -36 -61q-72 -62 -153 -62q-41 0 -70.5 10.5t-72.5 35.5z" />
    <glyph glyph-name="Imacron" unicode="&#x12a;" horiz-adv-x="566" 
d="M360 1328v-1232q0 -50 -14 -72q-20 -32 -63 -32t-63 32q-14 22 -14 72v1232q0 50 14 72q20 32 63 32t63 -32q14 -22 14 -72zM500 1600h-434q-39 0 -58 11q-26 17 -26 50t26 50q19 11 58 11h434q39 0 58 -11q26 -17 26 -50t-26 -50q-19 -11 -58 -11z" />
    <glyph glyph-name="imacron" unicode="&#x12b;" horiz-adv-x="518" 
d="M332 894v-804q0 -46 -13 -67q-19 -31 -60 -31t-60 31q-13 21 -13 67v804q0 46 13 67q19 31 60 31t60 -31q13 -21 13 -67zM476 1227h-434q-39 0 -58 11q-26 17 -26 50t26 50q19 11 58 11h434q39 0 58 -11q26 -17 26 -50t-26 -50q-19 -11 -58 -11z" />
    <glyph glyph-name="Ibreve" unicode="&#x12c;" horiz-adv-x="566" 
d="M360 1328v-1232q0 -50 -14 -72q-20 -32 -63 -32t-63 32q-14 22 -14 72v1232q0 50 14 72q20 32 63 32t63 -32q14 -22 14 -72zM283 1553q-135 0 -244 106q-31 29 -33 55q-3 25 16 45q19 21 45 19q21 -2 47 -26q85 -80 169 -80t169 80q26 24 47 26q26 2 45 -19
q19 -20 16 -45q-2 -26 -33 -55q-109 -106 -244 -106z" />
    <glyph glyph-name="ibreve" unicode="&#x12d;" horiz-adv-x="518" 
d="M332 894v-804q0 -46 -13 -67q-19 -31 -60 -31t-60 31q-13 21 -13 67v804q0 46 13 67q19 31 60 31t60 -31q13 -21 13 -67zM259 1180q-135 0 -244 106q-31 29 -33 55q-3 25 16 45q19 21 45 19q21 -2 47 -26q85 -80 169 -80t169 80q26 24 47 26q26 2 45 -19q19 -20 16 -45
q-2 -26 -33 -55q-109 -106 -244 -106z" />
    <glyph glyph-name="Iogonek" unicode="&#x12e;" horiz-adv-x="566" 
d="M360 1328v-1232q0 -50 -14 -72q-20 -32 -63 -32t-63 32q-14 22 -14 72v1232q0 50 14 72q20 32 63 32t63 -32q14 -22 14 -72zM103 -338l102 163q18 30 33 41q16 12 36 12t36 -11q35 -21 33 -57q-1 -22 -24 -57l-102 -163q-18 -30 -33 -41q-17 -12 -36 -12q-20 0 -36 11
q-35 21 -33 57q1 22 24 57z" />
    <glyph glyph-name="iogonek" unicode="&#x12f;" horiz-adv-x="518" 
d="M326 894v-804q0 -46 -13 -67q-19 -31 -60 -31t-60 31q-13 21 -13 67v804q0 46 13 67q19 31 60 31t60 -31q13 -21 13 -67zM154 1353q0 41 29 70t70 29t70 -29t29 -70t-29 -70t-70 -29t-70 29t-29 70zM72 -338l102 163q18 30 33 41q17 12 36 12t36 -11q35 -21 33 -57
q-1 -22 -24 -57l-102 -163q-18 -30 -33 -41q-17 -12 -36 -12t-36 11q-35 21 -33 57q1 22 24 57z" />
    <glyph glyph-name="Idotaccent" unicode="&#x130;" horiz-adv-x="566" 
d="M360 1328v-1232q0 -50 -14 -72q-20 -32 -63 -32t-63 32q-14 22 -14 72v1232q0 50 14 72q20 32 63 32t63 -32q14 -22 14 -72zM193 1677q0 37 26.5 63.5t63.5 26.5t63.5 -26.5t26.5 -63.5t-26.5 -63.5t-63.5 -26.5t-63.5 26.5t-26.5 63.5z" />
    <glyph glyph-name="dotlessi" unicode="&#x131;" horiz-adv-x="518" 
d="M332 894v-804q0 -46 -13 -67q-19 -31 -60 -31t-60 31q-13 21 -13 67v804q0 46 13 67q19 31 60 31t60 -31q13 -21 13 -67z" />
    <glyph glyph-name="IJ" unicode="&#x132;" horiz-adv-x="1567" 
d="M360 1328v-1232q0 -50 -14 -72q-20 -32 -63 -32t-63 32q-14 22 -14 72v1232q0 50 14 72q20 32 63 32t63 -32q14 -22 14 -72zM935 124q140 0 216 85.5t76 242.5v876q0 50 14 72q20 32 63 32t63 -32q14 -22 14 -72v-896q0 -203 -124 -323.5t-322 -120.5q-159 0 -271 83
q-40 30 -40 66q0 29 18 49q20 21 47 21q28 0 69 -29q76 -54 177 -54z" />
    <glyph glyph-name="ij" unicode="&#x133;" horiz-adv-x="1023" 
d="M332 894v-804q0 -46 -13 -67q-19 -31 -60 -31t-60 31q-13 21 -13 67v804q0 46 13 67q19 31 60 31t60 -31q13 -21 13 -67zM160 1353q0 41 29 70t70 29t70 -29t29 -70t-29 -70t-70 -29t-70 29t-29 70zM665 1353q0 41 29 70t70 29t70 -29t29 -70t-29 -70t-70 -29t-70 29
t-29 70zM691 -172v1066q0 46 13 67q19 31 60 31t60 -31q13 -21 13 -67v-1071q0 -115 -65 -189.5t-185 -74.5h-26q-45 0 -65 12q-27 17 -27 51t27 51q20 12 65 12q130 0 130 143z" />
    <glyph glyph-name="Jcircumflex" unicode="&#x134;" horiz-adv-x="993" 
d="M362 124q140 0 216 85.5t76 242.5v876q0 50 14 72q20 32 63 32t63 -32q14 -22 14 -72v-896q0 -203 -124 -323.5t-322 -120.5q-159 0 -271 83q-40 30 -40 66q0 29 18 49q20 21 47 21q28 0 69 -29q76 -54 177 -54zM730 1734l-155 -155q-27 -27 -49 -33q-30 -6 -53 17
q-24 24 -17 54q6 23 32 49l187 186q27 27 55 27t55 -27l187 -186q26 -26 32 -49q7 -30 -17 -54q-23 -23 -53 -17q-22 6 -49 33z" />
    <glyph glyph-name="jcircumflex" unicode="&#x135;" horiz-adv-x="518" 
d="M186 -172v1066q0 46 13 67q19 31 60 31t60 -31q13 -21 13 -67v-1071q0 -115 -65 -189.5t-185 -74.5h-26q-46 0 -65 12q-27 17 -27 51t27 51q20 12 65 12q130 0 130 143zM261 1360l-155 -155q-27 -27 -49 -33q-30 -6 -53 17q-24 24 -17 54q6 23 32 49l187 186q27 27 55 27
t55 -27l187 -186q26 -26 32 -49q7 -30 -17 -54q-23 -23 -53 -17q-22 6 -49 33z" />
    <glyph glyph-name="Kcommaaccent" unicode="&#x136;" horiz-adv-x="1299" 
d="M360 1328v-709l631 766q38 47 71 47q26 0 49 -18q26 -22 26 -55q0 -26 -34 -67l-338 -411l427 -750q23 -41 23 -69q0 -37 -39 -59q-19 -11 -39 -11q-26 0 -43 16t-35 47l-401 711l-298 -358v-312q0 -50 -14 -72q-20 -32 -63 -32t-63 32q-14 22 -14 72v1232q0 50 14 72
q20 32 63 32t63 -32q14 -22 14 -72zM525 -338l102 163q18 30 33 41q16 12 36 12t36 -11q35 -21 33 -57q-1 -22 -24 -57l-102 -163q-18 -30 -33 -41q-16 -12 -36 -12t-36 11q-35 21 -33 57q1 22 24 57z" />
    <glyph glyph-name="kcommaaccent" unicode="&#x137;" horiz-adv-x="1028" 
d="M949 61q0 -37 -34 -58q-18 -11 -38 -11q-22 0 -38 13t-35 43l-286 453l-191 -217v-194q0 -46 -13 -67q-19 -31 -60 -31t-60 31q-13 21 -13 67v1244q0 46 13 67q19 31 60 31t60 -31q13 -21 13 -67v-861l421 480q21 24 36 33.5t33 9.5q23 0 42 -16q24 -21 24 -48t-35 -67
l-229 -261l305 -481q25 -40 25 -62zM398 -338l102 163q18 30 33 41q16 12 36 12q19 0 36 -11q35 -21 33 -57q-1 -22 -24 -57l-102 -163q-18 -30 -33 -41q-17 -12 -36 -12t-36 11q-35 21 -33 57q1 22 24 57z" />
    <glyph glyph-name="kgreenlandic" unicode="&#x138;" horiz-adv-x="1028" 
d="M949 61q0 -37 -34 -58q-18 -11 -38 -11q-22 0 -38 13t-35 43l-286 451l-191 -221v-188q0 -46 -13 -67q-19 -31 -60 -31t-60 31q-13 21 -13 67v804q0 46 13 67q19 31 60 31t60 -31q13 -21 13 -67v-421l418 476q21 24 36 33.5t33 9.5q23 0 42 -16q24 -21 24 -48t-35 -67
l-226 -257l305 -481q25 -40 25 -62z" />
    <glyph glyph-name="Lacute" unicode="&#x139;" horiz-adv-x="1144" 
d="M299 0q-51 0 -72 21t-21 72v1235q0 50 14 72q20 32 63 32t63 -32q14 -22 14 -72v-1192h638q46 0 66 -12q29 -19 29 -56t-29 -56q-20 -12 -66 -12h-699zM254 1670l102 163q18 30 33 41q16 12 36 12q19 0 36 -11q35 -21 33 -57q-1 -22 -24 -57l-102 -163q-18 -30 -33 -41
q-17 -12 -36 -12t-36 11q-35 21 -33 57q1 22 24 57z" />
    <glyph glyph-name="lacute" unicode="&#x13a;" horiz-adv-x="590" 
d="M322 1334v-1065q0 -143 130 -143q46 0 65 -12q27 -17 27 -51t-27 -51q-19 -12 -65 -12h-26q-120 0 -185 74.5t-65 189.5v1070q0 46 13 67q19 31 60 31t60 -31q13 -21 13 -67zM211 1670l102 163q18 30 33 41q16 12 36 12t36 -11q35 -21 33 -57q-1 -22 -24 -57l-102 -163
q-18 -30 -33 -41q-16 -12 -36 -12t-36 11q-35 21 -33 57q1 22 24 57z" />
    <glyph glyph-name="Lcommaaccent" unicode="&#x13b;" horiz-adv-x="1144" 
d="M299 0q-51 0 -72 21t-21 72v1235q0 50 14 72q20 32 63 32t63 -32q14 -22 14 -72v-1192h638q46 0 66 -12q29 -19 29 -56t-29 -56q-20 -12 -66 -12h-699zM457 -338l102 163q18 30 33 41q16 12 36 12t36 -11q35 -21 33 -57q-1 -22 -24 -57l-102 -163q-18 -30 -33 -41
q-17 -12 -36 -12t-36 11q-35 21 -33 57q1 22 24 57z" />
    <glyph glyph-name="lcommaaccent" unicode="&#x13c;" horiz-adv-x="590" 
d="M322 1334v-1065q0 -143 130 -143q46 0 65 -12q27 -17 27 -51t-27 -51q-19 -12 -65 -12h-26q-120 0 -185 74.5t-65 189.5v1070q0 46 13 67q19 31 60 31t60 -31q13 -21 13 -67zM183 -338l102 163q18 30 33 41q16 12 36 12t36 -11q35 -21 33 -57q-1 -22 -24 -57l-102 -163
q-18 -30 -33 -41q-16 -12 -36 -12t-36 11q-35 21 -33 57q1 22 24 57z" />
    <glyph glyph-name="Lcaron" unicode="&#x13d;" horiz-adv-x="1144" 
d="M299 0q-51 0 -72 21t-21 72v1235q0 50 14 72q20 32 63 32t63 -32q14 -22 14 -72v-1192h638q46 0 66 -12q29 -19 29 -56t-29 -56q-20 -12 -66 -12h-699zM789 1361l-57 -170q-12 -36 -27 -51q-15 -17 -42 -17q-23 0 -40.5 12t-23.5 32q-7 22 7 66l57 170q12 36 27 51
q15 17 42 17q23 0 40.5 -12t23.5 -32q7 -22 -7 -66z" />
    <glyph glyph-name="lcaron" unicode="&#x13e;" horiz-adv-x="590" 
d="M322 1334v-1065q0 -143 130 -143q46 0 65 -12q27 -17 27 -51t-27 -51q-19 -12 -65 -12h-26q-120 0 -185 74.5t-65 189.5v1070q0 46 13 67q19 31 60 31t60 -31q13 -21 13 -67zM640 1361l-57 -170q-12 -36 -27 -51q-15 -17 -42 -17q-23 0 -40.5 12t-23.5 32q-7 22 7 66
l57 170q12 36 27 51q15 17 42 17q23 0 40.5 -12t23.5 -32q7 -22 -7 -66z" />
    <glyph glyph-name="Ldot" unicode="&#x13f;" horiz-adv-x="1144" 
d="M299 0q-51 0 -72 21t-21 72v1235q0 50 14 72q20 32 63 32t63 -32q14 -22 14 -72v-1192h638q46 0 66 -12q29 -19 29 -56t-29 -56q-20 -12 -66 -12h-699zM783 710q0 38 26.5 64t63.5 26t63.5 -26t26.5 -64t-26.5 -64t-63.5 -26t-63.5 26t-26.5 64z" />
    <glyph glyph-name="ldot" unicode="&#x140;" horiz-adv-x="708" 
d="M517 530q0 38 26.5 64t63.5 26t63.5 -26t26.5 -64t-26.5 -64t-63.5 -26t-63.5 26t-26.5 64zM322 1334v-1065q0 -143 130 -143q46 0 65 -12q27 -17 27 -51t-27 -51q-19 -12 -65 -12h-26q-120 0 -185 74.5t-65 189.5v1070q0 46 13 67q19 31 60 31t60 -31q13 -21 13 -67z
" />
    <glyph glyph-name="Lslash" unicode="&#x141;" horiz-adv-x="1173" 
d="M328 0q-51 0 -72 21t-21 72v492l-62 -31q-34 -17 -52 -17q-22 0 -40 18q-19 19 -19 47q0 22 13.5 36t42.5 28l117 58v604q0 50 14 72q20 32 63 32t63 -32q14 -22 14 -72v-527l228 115q34 17 52 17q22 0 40 -18q19 -19 19 -47q0 -22 -13.5 -36t-42.5 -28l-283 -142v-526
h638q46 0 66 -12q29 -19 29 -56t-29 -56q-20 -12 -66 -12h-699z" />
    <glyph glyph-name="lslash" unicode="&#x142;" horiz-adv-x="630" 
d="M354 762v-493q0 -143 130 -143q46 0 65 -12q27 -17 27 -51t-27 -51q-19 -12 -65 -12h-26q-120 0 -185 74.5t-65 189.5v425l-53 -26q-29 -15 -47 -15q-29 0 -47 31q-7 13 -7 28q0 14 10 29q10 12 41 28l103 51v519q0 46 13 67q19 31 60 31t60 -31q13 -21 13 -67v-446
l109 54q29 15 47 15q29 0 47 -31q7 -13 7 -28q0 -14 -10 -29q-10 -13 -41 -28z" />
    <glyph glyph-name="Nacute" unicode="&#x143;" horiz-adv-x="1466" 
d="M1260 1328v-1235q0 -53 -24 -77t-58 -24q-46 0 -87 61l-731 1080v-1037q0 -50 -14 -72q-20 -32 -63 -32t-63 32q-14 22 -14 72v1235q0 53 24 77q22 24 58 24q26 0 45.5 -14.5t41.5 -46.5l731 -1080v1037q0 50 14 72q20 32 63 32t63 -32q14 -22 14 -72zM695 1670l102 163
q18 30 33 41q16 12 36 12t36 -11q35 -21 33 -57q-1 -22 -24 -57l-102 -163q-18 -30 -33 -41q-16 -12 -36 -12t-36 11q-35 21 -33 57q1 22 24 57z" />
    <glyph glyph-name="nacute" unicode="&#x144;" horiz-adv-x="1130" 
d="M960 629v-539q0 -45 -13 -67q-19 -31 -60 -31q-43 0 -60 31q-13 22 -13 67v514q0 129 -63 195.5t-178 66.5t-180.5 -67.5t-65.5 -194.5v-514q0 -45 -13 -67q-19 -31 -60 -31t-60 31q-13 22 -13 67v804q0 46 13 67q19 31 60 31t60 -31q13 -21 13 -67v-18q108 120 276 120
q161 0 255 -92q102 -99 102 -275zM539 1303l102 163q18 30 33 41q16 12 36 12t36 -11q35 -21 33 -57q-1 -22 -24 -57l-102 -163q-18 -30 -33 -41q-16 -12 -36 -12t-36 11q-35 21 -33 57q1 22 24 57z" />
    <glyph glyph-name="Ncommaaccent" unicode="&#x145;" horiz-adv-x="1466" 
d="M1260 1328v-1235q0 -53 -24 -77t-58 -24q-46 0 -87 61l-731 1080v-1037q0 -50 -14 -72q-20 -32 -63 -32t-63 32q-14 22 -14 72v1235q0 53 24 77q22 24 58 24q26 0 45.5 -14.5t41.5 -46.5l731 -1080v1037q0 50 14 72q20 32 63 32t63 -32q14 -22 14 -72zM571 -338l102 163
q18 30 33 41q17 12 36 12q20 0 36 -11q35 -21 33 -57q-1 -22 -24 -57l-102 -163q-18 -30 -33 -41q-16 -12 -36 -12t-36 11q-35 21 -33 57q1 22 24 57z" />
    <glyph glyph-name="ncommaaccent" unicode="&#x146;" horiz-adv-x="1130" 
d="M960 629v-539q0 -45 -13 -67q-19 -31 -60 -31q-43 0 -60 31q-13 22 -13 67v514q0 129 -63 195.5t-178 66.5t-180.5 -67.5t-65.5 -194.5v-514q0 -45 -13 -67q-19 -31 -60 -31t-60 31q-13 22 -13 67v804q0 46 13 67q19 31 60 31t60 -31q13 -21 13 -67v-18q108 120 276 120
q161 0 255 -92q102 -99 102 -275zM428 -338l102 163q18 30 33 41q17 12 36 12t36 -11q35 -21 33 -57q-1 -22 -24 -57l-102 -163q-18 -30 -33 -41q-17 -12 -36 -12t-36 11q-35 21 -33 57q1 22 24 57z" />
    <glyph glyph-name="Ncaron" unicode="&#x147;" horiz-adv-x="1466" 
d="M1260 1328v-1235q0 -53 -24 -77t-58 -24q-46 0 -87 61l-731 1080v-1037q0 -50 -14 -72q-20 -32 -63 -32t-63 32q-14 22 -14 72v1235q0 53 24 77q22 24 58 24q26 0 45.5 -14.5t41.5 -46.5l731 -1080v1037q0 50 14 72q20 32 63 32t63 -32q14 -22 14 -72zM577 1842l155 -155
l155 155q27 27 49 33q31 6 53 -17q23 -23 17 -54q-4 -21 -32 -49l-187 -186q-27 -27 -55 -27t-55 27l-187 186q-28 28 -32 49q-6 31 17 54q22 23 53 17q22 -6 49 -33z" />
    <glyph glyph-name="ncaron" unicode="&#x148;" horiz-adv-x="1130" 
d="M960 629v-539q0 -45 -13 -67q-19 -31 -60 -31q-43 0 -60 31q-13 22 -13 67v514q0 129 -63 195.5t-178 66.5t-180.5 -67.5t-65.5 -194.5v-514q0 -45 -13 -67q-19 -31 -60 -31t-60 31q-13 22 -13 67v804q0 46 13 67q19 31 60 31t60 -31q13 -21 13 -67v-18q108 120 276 120
q161 0 255 -92q102 -99 102 -275zM421 1468l155 -155l155 155q27 27 49 33q31 6 53 -17q23 -23 17 -54q-4 -21 -32 -49l-187 -186q-27 -27 -55 -27t-55 27l-187 186q-28 28 -32 49q-6 31 17 54q22 23 53 17q22 -6 49 -33z" />
    <glyph glyph-name="napostrophe" unicode="&#x149;" horiz-adv-x="1469" 
d="M1299 629v-539q0 -45 -13 -67q-19 -31 -60 -31q-43 0 -60 31q-13 22 -13 67v514q0 129 -63 195.5t-178 66.5t-180.5 -67.5t-65.5 -194.5v-514q0 -45 -13 -67q-19 -31 -60 -31t-60 31q-13 22 -13 67v804q0 46 13 67q19 31 60 31t60 -31q13 -21 13 -67v-18q108 120 276 120
q161 0 255 -92q102 -99 102 -275zM350 1316l-72 -216q-14 -43 -33 -59q-16 -15 -42 -15q-24 0 -45.5 15t-26.5 37q-5 25 9 68l72 216q14 43 33 59q17 15 42 15q24 0 45.5 -15t26.5 -37q5 -25 -9 -68z" />
    <glyph glyph-name="Eng" unicode="&#x14a;" horiz-adv-x="1466" 
d="M1114 -172v191l-754 1114v-1037q0 -50 -14 -72q-20 -32 -63 -32t-63 32q-14 22 -14 72v1235q0 53 24 77q22 24 58 24q26 0 45.5 -14.5t41.5 -46.5l731 -1080v1037q0 50 14 72q20 32 63 32t63 -32q14 -22 14 -72v-1505q0 -115 -65 -189.5t-185 -74.5h-26q-46 0 -65 12
q-27 17 -27 51t27 51q19 12 65 12q130 0 130 143z" />
    <glyph glyph-name="eng" unicode="&#x14b;" horiz-adv-x="1130" 
d="M960 629v-806q0 -115 -65 -189.5t-185 -74.5h-26q-46 0 -65 12q-27 17 -27 51t27 51q19 12 65 12q130 0 130 143v776q0 129 -63 195.5t-178 66.5t-180.5 -67.5t-65.5 -194.5v-514q0 -45 -13 -67q-19 -31 -60 -31t-60 31q-13 22 -13 67v804q0 46 13 67q19 31 60 31t60 -31
q13 -21 13 -67v-18q108 120 276 120q161 0 255 -92q102 -99 102 -275z" />
    <glyph glyph-name="Omacron" unicode="&#x14c;" horiz-adv-x="1304" 
d="M652 1436q214 0 356 -140q41 -41 67 -83t42 -85t23.5 -110t9.5 -130.5t2 -175.5t-2 -175.5t-9.5 -130.5t-23.5 -110t-42 -85t-67 -83q-142 -140 -356 -140t-356 140q-41 41 -67 83t-42 85t-23.5 110t-9.5 130.5t-2 175.5t2 175.5t9.5 130.5t23.5 110t42 85t67 83
q142 140 356 140zM652 124q147 0 246 102q64 66 82 160.5t18 325.5t-18 325.5t-82 160.5q-99 102 -246 102t-246 -102q-64 -66 -82 -160.5t-18 -325.5t18 -325.5t82 -160.5q99 -102 246 -102zM866 1600h-434q-39 0 -58 11q-26 17 -26 50t26 50q19 11 58 11h434q39 0 58 -11
q26 -17 26 -50t-26 -50q-19 -11 -58 -11z" />
    <glyph glyph-name="omacron" unicode="&#x14d;" horiz-adv-x="1064" 
d="M532 118q107 0 178 71q80 80 80 303q0 222 -80 302q-72 72 -178 72t-178 -72q-80 -80 -80 -302q0 -223 80 -303q71 -71 178 -71zM532 996q171 0 283 -112q71 -72 96 -167t25 -225t-25 -225t-96 -167q-112 -112 -283 -112t-283 112q-71 72 -96 167t-25 225t25 225t96 167
q112 112 283 112zM749 1227h-434q-39 0 -58 11q-26 17 -26 50t26 50q19 11 58 11h434q39 0 58 -11q26 -17 26 -50t-26 -50q-19 -11 -58 -11z" />
    <glyph glyph-name="Obreve" unicode="&#x14e;" horiz-adv-x="1304" 
d="M652 1436q214 0 356 -140q41 -41 67 -83t42 -85t23.5 -110t9.5 -130.5t2 -175.5t-2 -175.5t-9.5 -130.5t-23.5 -110t-42 -85t-67 -83q-142 -140 -356 -140t-356 140q-41 41 -67 83t-42 85t-23.5 110t-9.5 130.5t-2 175.5t2 175.5t9.5 130.5t23.5 110t42 85t67 83
q142 140 356 140zM652 124q147 0 246 102q64 66 82 160.5t18 325.5t-18 325.5t-82 160.5q-99 102 -246 102t-246 -102q-64 -66 -82 -160.5t-18 -325.5t18 -325.5t82 -160.5q99 -102 246 -102zM650 1553q-135 0 -244 106q-31 29 -33 55q-3 25 16 45q19 21 45 19q21 -2 47 -26
q85 -80 169 -80t169 80q26 24 47 26q26 2 45 -19q19 -20 16 -45q-2 -26 -33 -55q-109 -106 -244 -106z" />
    <glyph glyph-name="obreve" unicode="&#x14f;" horiz-adv-x="1064" 
d="M532 118q107 0 178 71q80 80 80 303q0 222 -80 302q-72 72 -178 72t-178 -72q-80 -80 -80 -302q0 -223 80 -303q71 -71 178 -71zM532 996q171 0 283 -112q71 -72 96 -167t25 -225t-25 -225t-96 -167q-112 -112 -283 -112t-283 112q-71 72 -96 167t-25 225t25 225t96 167
q112 112 283 112zM532 1180q-135 0 -244 106q-31 29 -33 55q-3 25 16 45q19 21 45 19q21 -2 47 -26q85 -80 169 -80t169 80q26 24 47 26q26 2 45 -19q19 -20 16 -45q-2 -26 -33 -55q-109 -106 -244 -106z" />
    <glyph glyph-name="Ohungarumlaut" unicode="&#x150;" horiz-adv-x="1304" 
d="M652 1436q214 0 356 -140q41 -41 67 -83t42 -85t23.5 -110t9.5 -130.5t2 -175.5t-2 -175.5t-9.5 -130.5t-23.5 -110t-42 -85t-67 -83q-142 -140 -356 -140t-356 140q-41 41 -67 83t-42 85t-23.5 110t-9.5 130.5t-2 175.5t2 175.5t9.5 130.5t23.5 110t42 85t67 83
q142 140 356 140zM652 124q147 0 246 102q64 66 82 160.5t18 325.5t-18 325.5t-82 160.5q-99 102 -246 102t-246 -102q-64 -66 -82 -160.5t-18 -325.5t18 -325.5t82 -160.5q99 -102 246 -102zM460 1674l102 163q18 30 33 41q17 12 36 12t36 -11q35 -21 33 -57
q-1 -22 -24 -57l-102 -163q-18 -30 -33 -41q-16 -12 -36 -12q-19 0 -36 11q-35 21 -33 57q1 22 24 57zM790 1674l102 163q18 30 33 41q17 12 36 12t36 -11q35 -21 33 -57q-1 -22 -24 -57l-102 -163q-18 -30 -33 -41q-16 -12 -36 -12q-19 0 -36 11q-35 21 -33 57q1 22 24 57z
" />
    <glyph glyph-name="ohungarumlaut" unicode="&#x151;" horiz-adv-x="1064" 
d="M532 118q107 0 178 71q80 80 80 303q0 222 -80 302q-72 72 -178 72t-178 -72q-80 -80 -80 -302q0 -223 80 -303q71 -71 178 -71zM532 996q171 0 283 -112q71 -72 96 -167t25 -225t-25 -225t-96 -167q-112 -112 -283 -112t-283 112q-71 72 -96 167t-25 225t25 225t96 167
q112 112 283 112zM341 1303l102 163q18 30 33 41q17 12 36 12q20 0 36 -11q35 -21 33 -57q-1 -22 -24 -57l-102 -163q-18 -30 -33 -41q-17 -12 -36 -12q-20 0 -36 11q-35 21 -33 57q1 22 24 57zM671 1303l102 163q18 30 33 41q16 12 36 12t36 -11q35 -21 33 -57
q-1 -22 -24 -57l-102 -163q-18 -30 -33 -41q-16 -12 -36 -12t-36 11q-35 21 -33 57q1 22 24 57z" />
    <glyph glyph-name="OE" unicode="&#x152;" horiz-adv-x="1991" 
d="M1091 1424h703q46 0 66 -12q29 -19 29 -56t-29 -56q-20 -12 -66 -12h-643v-502h534q46 0 66 -12q29 -19 29 -56t-29 -56q-20 -12 -66 -12h-534v-514h643q46 0 66 -12q29 -19 29 -56t-29 -56q-20 -12 -66 -12h-703q-51 0 -72 21t-21 72v40q-137 -145 -346 -145
q-214 0 -356 140q-41 41 -67 83t-42 85t-23.5 110t-9.5 130.5t-2 175.5t2 175.5t9.5 130.5t23.5 110t42 85t67 83q142 140 356 140q209 0 346 -145v40q0 51 21 72t72 21zM652 123q147 0 246 102q64 66 82 161t18 326t-18 326t-82 161q-99 102 -246 102t-246 -102
q-64 -66 -82 -161t-18 -326t18 -326t82 -161q99 -102 246 -102z" />
    <glyph glyph-name="oe" unicode="&#x153;" horiz-adv-x="1722" 
d="M532 118q107 0 178 71q80 80 80 303q0 222 -80 302q-72 72 -178 72t-178 -72q-80 -80 -80 -302q0 -223 80 -303q71 -71 178 -71zM935 565h522q-4 94 -31 160q-28 68 -89 107.5t-141 39.5t-141.5 -40t-88.5 -107q-27 -66 -31 -160zM532 -12q-171 0 -283 112
q-71 72 -96 167t-25 225t25 225t96 167q112 112 283 112q112 0 199 -49.5t136 -139.5q50 92 133.5 140.5t195.5 48.5q186 0 294 -124.5t110 -331.5q0 -46 -20 -66q-19 -19 -64 -19h-581q0 -163 75.5 -252t216.5 -89q127 0 211 71q42 35 68 35q24 0 43 -19t19 -44
q0 -49 -102 -112q-96 -57 -245 -57q-250 0 -356 189q-47 -89 -134.5 -139t-198.5 -50z" />
    <glyph glyph-name="Racute" unicode="&#x154;" horiz-adv-x="1314" 
d="M206 1331q0 51 21 72t72 21h455q189 0 306.5 -107t117.5 -289q0 -152 -84.5 -252t-226.5 -130l295 -515q23 -41 23 -69q0 -37 -39 -59q-19 -11 -39 -11q-26 0 -43 16t-35 47l-330 577h-339v-536q0 -50 -14 -72q-20 -32 -63 -32t-63 32q-14 22 -14 72v1235zM740 1288h-380
v-522h380q129 0 206.5 66.5t77.5 193.5t-77.5 194.5t-206.5 67.5zM619 1670l102 163q18 30 33 41q16 12 36 12t36 -11q35 -21 33 -57q-1 -22 -24 -57l-102 -163q-18 -30 -33 -41q-16 -12 -36 -12t-36 11q-35 21 -33 57q1 22 24 57z" />
    <glyph glyph-name="racute" unicode="&#x155;" horiz-adv-x="844" 
d="M327 895v-29q41 60 114.5 95t154.5 35q102 0 177 -47q55 -35 55 -74q0 -30 -21 -51t-50 -21q-21 0 -69 28q-59 35 -123 35q-108 0 -173 -74t-65 -191v-511q0 -46 -13 -67q-19 -31 -60 -31t-60 31q-13 21 -13 67v805q0 46 13 67q19 31 60 31t60 -31q13 -21 13 -67z
M380 1303l102 163q18 30 33 41q16 12 36 12q19 0 36 -11q35 -21 33 -57q-1 -22 -24 -57l-102 -163q-18 -30 -33 -41q-17 -12 -36 -12t-36 11q-35 21 -33 57q1 22 24 57z" />
    <glyph glyph-name="Rcommaaccent" unicode="&#x156;" horiz-adv-x="1314" 
d="M206 1331q0 51 21 72t72 21h455q189 0 306.5 -107t117.5 -289q0 -152 -84.5 -252t-226.5 -130l295 -515q23 -41 23 -69q0 -37 -39 -59q-19 -11 -39 -11q-26 0 -43 16t-35 47l-330 577h-339v-536q0 -50 -14 -72q-20 -32 -63 -32t-63 32q-14 22 -14 72v1235zM740 1288h-380
v-522h380q129 0 206.5 66.5t77.5 193.5t-77.5 194.5t-206.5 67.5zM511 -338l102 163q18 30 33 41q17 12 36 12q20 0 36 -11q35 -21 33 -57q-1 -22 -24 -57l-102 -163q-18 -30 -33 -41q-16 -12 -36 -12t-36 11q-35 21 -33 57q1 22 24 57z" />
    <glyph glyph-name="rcommaaccent" unicode="&#x157;" horiz-adv-x="844" 
d="M327 895v-29q41 60 114.5 95t154.5 35q102 0 177 -47q55 -35 55 -74q0 -30 -21 -51t-50 -21q-21 0 -69 28q-59 35 -123 35q-108 0 -173 -74t-65 -191v-511q0 -46 -13 -67q-19 -31 -60 -31t-60 31q-13 21 -13 67v805q0 46 13 67q19 31 60 31t60 -31q13 -21 13 -67z
M71 -338l102 163q18 30 33 41q16 12 36 12t36 -11q35 -21 33 -57q-1 -22 -24 -57l-102 -163q-18 -30 -33 -41q-16 -12 -36 -12t-36 11q-35 21 -33 57q1 22 24 57z" />
    <glyph glyph-name="Rcaron" unicode="&#x158;" horiz-adv-x="1314" 
d="M206 1331q0 51 21 72t72 21h455q189 0 306.5 -107t117.5 -289q0 -152 -84.5 -252t-226.5 -130l295 -515q23 -41 23 -69q0 -37 -39 -59q-19 -11 -39 -11q-26 0 -43 16t-35 47l-330 577h-339v-536q0 -50 -14 -72q-20 -32 -63 -32t-63 32q-14 22 -14 72v1235zM740 1288h-380
v-522h380q129 0 206.5 66.5t77.5 193.5t-77.5 194.5t-206.5 67.5zM501 1842l155 -155l155 155q27 27 49 33q31 6 53 -17q23 -23 17 -54q-4 -21 -32 -49l-187 -186q-27 -27 -55 -27t-55 27l-187 186q-28 28 -32 49q-6 31 17 54q22 23 53 17q22 -6 49 -33z" />
    <glyph glyph-name="rcaron" unicode="&#x159;" horiz-adv-x="844" 
d="M327 895v-29q41 60 114.5 95t154.5 35q102 0 177 -47q55 -35 55 -74q0 -30 -21 -51t-50 -21q-21 0 -69 28q-59 35 -123 35q-108 0 -173 -74t-65 -191v-511q0 -46 -13 -67q-19 -31 -60 -31t-60 31q-13 21 -13 67v805q0 46 13 67q19 31 60 31t60 -31q13 -21 13 -67z
M262 1468l155 -155l155 155q27 27 49 33q31 6 53 -17q23 -23 17 -54q-4 -21 -32 -49l-187 -186q-27 -27 -55 -27t-55 27l-187 186q-28 28 -32 49q-6 31 17 54q22 23 53 17q22 -6 49 -33z" />
    <glyph glyph-name="Sacute" unicode="&#x15a;" horiz-adv-x="1177" 
d="M659 635l-167 26q-86 13 -146 37.5t-113 71.5q-110 97 -110 265q0 182 123 291.5t333 109.5q108 0 182 -21.5t167 -78.5q59 -36 59 -78q0 -27 -17 -45q-19 -22 -48 -22q-26 0 -70 28q-72 49 -132 67t-147 18q-141 0 -221.5 -71.5t-80.5 -190.5q0 -111 66 -167
q39 -33 81 -50.5t110 -27.5l157 -24q100 -16 158 -38t103 -61q119 -100 119 -282q0 -186 -134.5 -295t-358.5 -109q-130 0 -218.5 27t-186.5 93q-64 42 -64 87q0 31 21 52q19 19 47 19q30 0 71 -32q79 -61 154.5 -85.5t180.5 -24.5q158 0 247.5 69t89.5 194q0 118 -69 179
q-34 30 -71 43.5t-115 25.5zM549 1670l102 163q18 30 33 41q17 12 36 12q20 0 36 -11q35 -21 33 -57q-1 -22 -24 -57l-102 -163q-18 -30 -33 -41q-16 -12 -36 -12t-36 11q-35 21 -33 57q1 22 24 57z" />
    <glyph glyph-name="sacute" unicode="&#x15b;" horiz-adv-x="992" 
d="M145 82q-48 33 -48 68q0 29 23 50q16 15 42 15q28 0 66 -28q103 -74 259 -74q127 0 194.5 43.5t67.5 129.5q0 66 -40 100.5t-124 42.5l-162 15q-294 26 -294 264q0 132 100.5 210.5t261.5 78.5q153 0 275 -62q35 -18 49 -36q11 -16 11 -37q0 -19 -16 -39q-20 -21 -46 -21
q-20 0 -55 19q-101 53 -220 53q-105 0 -162.5 -42t-57.5 -120q0 -66 42 -100t131 -42l158 -15q140 -13 215 -74t75 -193q0 -140 -110 -220t-291 -80q-209 0 -344 94zM468 1303l102 163q18 30 33 41q16 12 36 12q19 0 36 -11q35 -21 33 -57q-1 -22 -24 -57l-102 -163
q-18 -30 -33 -41q-17 -12 -36 -12t-36 11q-35 21 -33 57q1 22 24 57z" />
    <glyph glyph-name="Scircumflex" unicode="&#x15c;" horiz-adv-x="1177" 
d="M659 635l-167 26q-86 13 -146 37.5t-113 71.5q-110 97 -110 265q0 182 123 291.5t333 109.5q108 0 182 -21.5t167 -78.5q59 -36 59 -78q0 -27 -17 -45q-19 -22 -48 -22q-26 0 -70 28q-72 49 -132 67t-147 18q-141 0 -221.5 -71.5t-80.5 -190.5q0 -111 66 -167
q39 -33 81 -50.5t110 -27.5l157 -24q100 -16 158 -38t103 -61q119 -100 119 -282q0 -186 -134.5 -295t-358.5 -109q-130 0 -218.5 27t-186.5 93q-64 42 -64 87q0 31 21 52q19 19 47 19q30 0 71 -32q79 -61 154.5 -85.5t180.5 -24.5q158 0 247.5 69t89.5 194q0 118 -69 179
q-34 30 -71 43.5t-115 25.5zM586 1734l-155 -155q-27 -27 -49 -33q-30 -6 -53 17q-24 24 -17 54q6 23 32 49l187 186q27 27 55 27t55 -27l187 -186q26 -26 32 -49q7 -30 -17 -54q-23 -23 -53 -17q-22 6 -49 33z" />
    <glyph glyph-name="scircumflex" unicode="&#x15d;" horiz-adv-x="992" 
d="M145 82q-48 33 -48 68q0 29 23 50q16 15 42 15q28 0 66 -28q103 -74 259 -74q127 0 194.5 43.5t67.5 129.5q0 66 -40 100.5t-124 42.5l-162 15q-294 26 -294 264q0 132 100.5 210.5t261.5 78.5q153 0 275 -62q35 -18 49 -36q11 -16 11 -37q0 -19 -16 -39q-20 -21 -46 -21
q-20 0 -55 19q-101 53 -220 53q-105 0 -162.5 -42t-57.5 -120q0 -66 42 -100t131 -42l158 -15q140 -13 215 -74t75 -193q0 -140 -110 -220t-291 -80q-209 0 -344 94zM505 1360l-155 -155q-27 -27 -49 -33q-30 -6 -53 17q-24 24 -17 54q6 23 32 49l187 186q27 27 55 27
t55 -27l187 -186q26 -26 32 -49q7 -30 -17 -54q-23 -23 -53 -17q-22 6 -49 33z" />
    <glyph glyph-name="Scedilla" unicode="&#x15e;" horiz-adv-x="1177" 
d="M659 635l-167 26q-86 13 -146 37.5t-113 71.5q-110 97 -110 265q0 182 123 291.5t333 109.5q108 0 182 -21.5t167 -78.5q59 -36 59 -78q0 -27 -17 -45q-19 -22 -48 -22q-26 0 -70 28q-72 49 -132 67t-147 18q-141 0 -221.5 -71.5t-80.5 -190.5q0 -111 66 -167
q39 -33 81 -50.5t110 -27.5l157 -24q100 -16 158 -38t103 -61q119 -100 119 -282q0 -186 -134.5 -295t-358.5 -109q-130 0 -218.5 27t-186.5 93q-64 42 -64 87q0 31 21 52q19 19 47 19q30 0 71 -32q79 -61 154.5 -85.5t180.5 -24.5q158 0 247.5 69t89.5 194q0 118 -69 179
q-34 30 -71 43.5t-115 25.5zM382 -338l102 163q18 30 33 41q17 12 36 12t36 -11q35 -21 33 -57q-1 -22 -24 -57l-102 -163q-18 -30 -33 -41q-16 -12 -36 -12q-19 0 -36 11q-35 21 -33 57q1 22 24 57z" />
    <glyph glyph-name="scedilla" unicode="&#x15f;" horiz-adv-x="992" 
d="M145 82q-48 33 -48 68q0 29 23 50q16 15 42 15q28 0 66 -28q103 -74 259 -74q127 0 194.5 43.5t67.5 129.5q0 66 -40 100.5t-124 42.5l-162 15q-294 26 -294 264q0 132 100.5 210.5t261.5 78.5q153 0 275 -62q35 -18 49 -36q11 -16 11 -37q0 -19 -16 -39q-20 -21 -46 -21
q-20 0 -55 19q-101 53 -220 53q-105 0 -162.5 -42t-57.5 -120q0 -66 42 -100t131 -42l158 -15q140 -13 215 -74t75 -193q0 -140 -110 -220t-291 -80q-209 0 -344 94zM322 -338l102 163q18 30 33 41q17 12 36 12t36 -11q35 -21 33 -57q-1 -22 -24 -57l-102 -163
q-18 -30 -33 -41q-16 -12 -36 -12q-19 0 -36 11q-35 21 -33 57q1 22 24 57z" />
    <glyph glyph-name="Scaron" unicode="&#x160;" horiz-adv-x="1177" 
d="M659 635l-167 26q-86 13 -146 37.5t-113 71.5q-110 97 -110 265q0 182 123 291.5t333 109.5q108 0 182 -21.5t167 -78.5q59 -36 59 -78q0 -27 -17 -45q-19 -22 -48 -22q-26 0 -70 28q-72 49 -132 67t-147 18q-141 0 -221.5 -71.5t-80.5 -190.5q0 -111 66 -167
q39 -33 81 -50.5t110 -27.5l157 -24q100 -16 158 -38t103 -61q119 -100 119 -282q0 -186 -134.5 -295t-358.5 -109q-130 0 -218.5 27t-186.5 93q-64 42 -64 87q0 31 21 52q19 19 47 19q30 0 71 -32q79 -61 154.5 -85.5t180.5 -24.5q158 0 247.5 69t89.5 194q0 118 -69 179
q-34 30 -71 43.5t-115 25.5zM431 1842l155 -155l155 155q27 27 49 33q31 6 53 -17q23 -23 17 -54q-4 -21 -32 -49l-187 -186q-27 -27 -55 -27t-55 27l-187 186q-28 28 -32 49q-6 31 17 54q22 23 53 17q22 -6 49 -33z" />
    <glyph glyph-name="scaron" unicode="&#x161;" horiz-adv-x="992" 
d="M145 82q-48 33 -48 68q0 29 23 50q16 15 42 15q28 0 66 -28q103 -74 259 -74q127 0 194.5 43.5t67.5 129.5q0 66 -40 100.5t-124 42.5l-162 15q-294 26 -294 264q0 132 100.5 210.5t261.5 78.5q153 0 275 -62q35 -18 49 -36q11 -16 11 -37q0 -19 -16 -39q-20 -21 -46 -21
q-20 0 -55 19q-101 53 -220 53q-105 0 -162.5 -42t-57.5 -120q0 -66 42 -100t131 -42l158 -15q140 -13 215 -74t75 -193q0 -140 -110 -220t-291 -80q-209 0 -344 94zM350 1468l155 -155l155 155q27 27 49 33q31 6 53 -17q23 -23 17 -54q-4 -21 -32 -49l-187 -186
q-27 -27 -55 -27t-55 27l-187 186q-28 28 -32 49q-6 31 17 54q22 23 53 17q22 -6 49 -33z" />
    <glyph glyph-name="Tcommaaccent" unicode="&#x162;" horiz-adv-x="1094" 
d="M146 1424h802q46 0 66 -12q29 -19 29 -56t-29 -56q-20 -12 -66 -12h-324v-1192q0 -50 -14 -72q-20 -32 -63 -32t-63 32q-14 22 -14 72v1192h-324q-46 0 -66 12q-29 19 -29 56t29 56q20 12 66 12zM361 -338l102 163q18 30 33 41q16 12 36 12t36 -11q35 -21 33 -57
q-1 -22 -24 -57l-102 -163q-18 -30 -33 -41q-16 -12 -36 -12q-19 0 -36 11q-35 21 -33 57q1 22 24 57z" />
    <glyph glyph-name="tcommaaccent" unicode="&#x163;" horiz-adv-x="672" 
d="M357 872v-603q0 -143 130 -143q45 0 65 -12q27 -17 27 -51t-27 -51q-20 -12 -65 -12h-26q-120 0 -185 74.5t-65 189.5v608h-69q-38 0 -53 10q-24 14 -24 46t24 46q15 10 53 10h69v211q0 46 13 67q19 31 60 31t60 -31q13 -21 13 -67v-211h145q38 0 53 -10q24 -14 24 -46
t-24 -46q-15 -10 -53 -10h-145zM209 -338l102 163q18 30 33 41q16 12 36 12t36 -11q35 -21 33 -57q-1 -22 -24 -57l-102 -163q-18 -30 -33 -41q-16 -12 -36 -12q-19 0 -36 11q-35 21 -33 57q1 22 24 57z" />
    <glyph glyph-name="Tcaron" unicode="&#x164;" horiz-adv-x="1094" 
d="M146 1424h802q46 0 66 -12q29 -19 29 -56t-29 -56q-20 -12 -66 -12h-324v-1192q0 -50 -14 -72q-20 -32 -63 -32t-63 32q-14 22 -14 72v1192h-324q-46 0 -66 12q-29 19 -29 56t29 56q20 12 66 12zM392 1842l155 -155l155 155q27 27 49 33q31 6 53 -17q23 -23 17 -54
q-4 -21 -32 -49l-187 -186q-27 -27 -55 -27t-55 27l-187 186q-28 28 -32 49q-6 31 17 54q22 23 53 17q22 -6 49 -33z" />
    <glyph glyph-name="tcaron" unicode="&#x165;" horiz-adv-x="672" 
d="M357 872v-603q0 -143 130 -143q45 0 65 -12q27 -17 27 -51t-27 -51q-20 -12 -65 -12h-26q-120 0 -185 74.5t-65 189.5v608h-69q-38 0 -53 10q-24 14 -24 46t24 46q15 10 53 10h69v211q0 46 13 67q19 31 60 31t60 -31q13 -21 13 -67v-211h145q38 0 53 -10q24 -14 24 -46
t-24 -46q-15 -10 -53 -10h-145zM674 1361l-57 -170q-12 -36 -27 -51q-15 -17 -42 -17q-23 0 -40.5 12t-23.5 32q-7 22 7 66l57 170q12 36 27 51q15 17 42 17q23 0 40.5 -12t23.5 -32q7 -22 -7 -66z" />
    <glyph glyph-name="Tbar" unicode="&#x166;" horiz-adv-x="1094" 
d="M146 1424h802q46 0 66 -12q29 -19 29 -56t-29 -56q-20 -12 -66 -12h-324v-508h169q43 0 60 -11q26 -17 26 -51t-26 -51q-17 -11 -60 -11h-169v-560q0 -50 -14 -72q-20 -32 -63 -32t-63 32q-14 22 -14 72v560h-169q-43 0 -60 11q-26 17 -26 51t26 51q17 11 60 11h169v508
h-324q-46 0 -66 12q-29 19 -29 56t29 56q20 12 66 12z" />
    <glyph glyph-name="tbar" unicode="&#x167;" horiz-adv-x="672" 
d="M211 984v211q0 46 13 67q19 31 60 31t60 -31q13 -21 13 -67v-211h145q38 0 53 -10q24 -14 24 -46t-24 -46q-15 -10 -53 -10h-145v-259h120q38 0 53 -10q24 -14 24 -46t-24 -46q-15 -10 -53 -10h-120v-232q0 -143 130 -143q45 0 65 -12q27 -17 27 -51t-27 -51
q-20 -12 -65 -12h-26q-120 0 -185 74.5t-65 189.5v237h-64q-38 0 -53 10q-24 14 -24 46t24 46q15 10 53 10h64v259h-69q-38 0 -53 10q-24 14 -24 46t24 46q15 10 53 10h69z" />
    <glyph glyph-name="Utilde" unicode="&#x168;" horiz-adv-x="1368" 
d="M1183 470q0 -212 -141 -347t-359 -135t-358 135t-140 347v858q0 50 14 72q20 32 63 32t63 -32q14 -22 14 -72v-846q0 -162 94 -260t250 -98t251 98t95 260v846q0 50 14 72q20 32 63 32t63 -32q14 -22 14 -72v-858zM668 1620q-70 41 -111 41q-24 0 -42.5 -6.5t-45.5 -29.5
q-31 -26 -51 -26q-22 0 -37 15t-15 39q0 30 36 61q72 62 153 62q41 0 70.5 -10.5t72.5 -35.5q70 -41 111 -41q24 0 42.5 6.5t45.5 29.5q31 26 51 26q22 0 37 -15t15 -39q0 -30 -36 -61q-72 -62 -153 -62q-41 0 -70.5 10.5t-72.5 35.5z" />
    <glyph glyph-name="utilde" unicode="&#x169;" horiz-adv-x="1130" 
d="M170 355v539q0 45 13 67q19 31 60 31q43 0 60 -31q13 -22 13 -67v-514q0 -129 63 -195.5t178 -66.5t180.5 67.5t65.5 194.5v514q0 45 13 67q19 31 60 31t60 -31q13 -22 13 -67v-804q0 -46 -13 -67q-19 -31 -60 -31t-60 31q-13 21 -13 67v18q-108 -120 -276 -120
q-161 0 -255 92q-102 99 -102 275zM543 1258q-70 41 -111 41q-24 0 -42.5 -6.5t-45.5 -29.5q-31 -26 -51 -26q-22 0 -37 15t-15 39q0 30 36 61q72 62 153 62q41 0 70.5 -10.5t72.5 -35.5q70 -41 111 -41q24 0 42.5 6.5t45.5 29.5q31 26 51 26q22 0 37 -15t15 -39
q0 -30 -36 -61q-72 -62 -153 -62q-41 0 -70.5 10.5t-72.5 35.5z" />
    <glyph glyph-name="Umacron" unicode="&#x16a;" horiz-adv-x="1368" 
d="M1183 470q0 -212 -141 -347t-359 -135t-358 135t-140 347v858q0 50 14 72q20 32 63 32t63 -32q14 -22 14 -72v-846q0 -162 94 -260t250 -98t251 98t95 260v846q0 50 14 72q20 32 63 32t63 -32q14 -22 14 -72v-858zM900 1600h-434q-39 0 -58 11q-26 17 -26 50t26 50
q19 11 58 11h434q39 0 58 -11q26 -17 26 -50t-26 -50q-19 -11 -58 -11z" />
    <glyph glyph-name="umacron" unicode="&#x16b;" horiz-adv-x="1130" 
d="M170 355v539q0 45 13 67q19 31 60 31q43 0 60 -31q13 -22 13 -67v-514q0 -129 63 -195.5t178 -66.5t180.5 67.5t65.5 194.5v514q0 45 13 67q19 31 60 31t60 -31q13 -22 13 -67v-804q0 -46 -13 -67q-19 -31 -60 -31t-60 31q-13 21 -13 67v18q-108 -120 -276 -120
q-161 0 -255 92q-102 99 -102 275zM775 1227h-434q-39 0 -58 11q-26 17 -26 50t26 50q19 11 58 11h434q39 0 58 -11q26 -17 26 -50t-26 -50q-19 -11 -58 -11z" />
    <glyph glyph-name="Ubreve" unicode="&#x16c;" horiz-adv-x="1368" 
d="M1183 470q0 -212 -141 -347t-359 -135t-358 135t-140 347v858q0 50 14 72q20 32 63 32t63 -32q14 -22 14 -72v-846q0 -162 94 -260t250 -98t251 98t95 260v846q0 50 14 72q20 32 63 32t63 -32q14 -22 14 -72v-858zM683 1553q-135 0 -244 106q-31 29 -33 55q-3 25 16 45
q19 21 45 19q21 -2 47 -26q85 -80 169 -80t169 80q26 24 47 26q26 2 45 -19q19 -20 16 -45q-2 -26 -33 -55q-109 -106 -244 -106z" />
    <glyph glyph-name="ubreve" unicode="&#x16d;" horiz-adv-x="1130" 
d="M170 355v539q0 45 13 67q19 31 60 31q43 0 60 -31q13 -22 13 -67v-514q0 -129 63 -195.5t178 -66.5t180.5 67.5t65.5 194.5v514q0 45 13 67q19 31 60 31t60 -31q13 -22 13 -67v-804q0 -46 -13 -67q-19 -31 -60 -31t-60 31q-13 21 -13 67v18q-108 -120 -276 -120
q-161 0 -255 92q-102 99 -102 275zM558 1180q-135 0 -244 106q-31 29 -33 55q-3 25 16 45q19 21 45 19q21 -2 47 -26q85 -80 169 -80t169 80q26 24 47 26q26 2 45 -19q19 -20 16 -45q-2 -26 -33 -55q-109 -106 -244 -106z" />
    <glyph glyph-name="Uring" unicode="&#x16e;" horiz-adv-x="1368" 
d="M1183 470q0 -212 -141 -347t-359 -135t-358 135t-140 347v858q0 50 14 72q20 32 63 32t63 -32q14 -22 14 -72v-846q0 -162 94 -260t250 -98t251 98t95 260v846q0 50 14 72q20 32 63 32t63 -32q14 -22 14 -72v-858zM446 1732q0 98 69.5 167.5t167.5 69.5t167.5 -69.5
t69.5 -167.5t-69.5 -167.5t-167.5 -69.5t-167.5 69.5t-69.5 167.5zM545 1732q0 -57 40.5 -97.5t97.5 -40.5t97.5 40.5t40.5 97.5t-40.5 97.5t-97.5 40.5t-97.5 -40.5t-40.5 -97.5z" />
    <glyph glyph-name="uring" unicode="&#x16f;" horiz-adv-x="1130" 
d="M170 355v539q0 45 13 67q19 31 60 31q43 0 60 -31q13 -22 13 -67v-514q0 -129 63 -195.5t178 -66.5t180.5 67.5t65.5 194.5v514q0 45 13 67q19 31 60 31t60 -31q13 -22 13 -67v-804q0 -46 -13 -67q-19 -31 -60 -31t-60 31q-13 21 -13 67v18q-108 -120 -276 -120
q-161 0 -255 92q-102 99 -102 275zM321 1374q0 98 69.5 167.5t167.5 69.5t167.5 -69.5t69.5 -167.5t-69.5 -167.5t-167.5 -69.5t-167.5 69.5t-69.5 167.5zM420 1374q0 -57 40.5 -97.5t97.5 -40.5t97.5 40.5t40.5 97.5t-40.5 97.5t-97.5 40.5t-97.5 -40.5t-40.5 -97.5z" />
    <glyph glyph-name="Uhungarumlaut" unicode="&#x170;" horiz-adv-x="1368" 
d="M1183 470q0 -212 -141 -347t-359 -135t-358 135t-140 347v858q0 50 14 72q20 32 63 32t63 -32q14 -22 14 -72v-846q0 -162 94 -260t250 -98t251 98t95 260v846q0 50 14 72q20 32 63 32t63 -32q14 -22 14 -72v-858zM493 1674l102 163q18 30 33 41q16 12 36 12t36 -11
q35 -21 33 -57q-1 -22 -24 -57l-102 -163q-18 -30 -33 -41q-16 -12 -36 -12t-36 11q-35 21 -33 57q1 22 24 57zM823 1674l102 163q18 30 33 41q16 12 36 12t36 -11q35 -21 33 -57q-1 -22 -24 -57l-102 -163q-18 -30 -33 -41q-16 -12 -36 -12t-36 11q-35 21 -33 57
q1 22 24 57z" />
    <glyph glyph-name="uhungarumlaut" unicode="&#x171;" horiz-adv-x="1130" 
d="M170 355v539q0 45 13 67q19 31 60 31q43 0 60 -31q13 -22 13 -67v-514q0 -129 63 -195.5t178 -66.5t180.5 67.5t65.5 194.5v514q0 45 13 67q19 31 60 31t60 -31q13 -22 13 -67v-804q0 -46 -13 -67q-19 -31 -60 -31t-60 31q-13 21 -13 67v18q-108 -120 -276 -120
q-161 0 -255 92q-102 99 -102 275zM367 1303l102 163q18 30 33 41q16 12 36 12t36 -11q35 -21 33 -57q-1 -22 -24 -57l-102 -163q-18 -30 -33 -41q-17 -12 -36 -12t-36 11q-35 21 -33 57q1 22 24 57zM697 1303l102 163q18 30 33 41q16 12 36 12t36 -11q35 -21 33 -57
q-1 -22 -24 -57l-102 -163q-18 -30 -33 -41q-16 -12 -36 -12t-36 11q-35 21 -33 57q1 22 24 57z" />
    <glyph glyph-name="Uogonek" unicode="&#x172;" horiz-adv-x="1368" 
d="M1183 470q0 -212 -141 -347t-359 -135t-358 135t-140 347v858q0 50 14 72q20 32 63 32t63 -32q14 -22 14 -72v-846q0 -162 94 -260t250 -98t251 98t95 260v846q0 50 14 72q20 32 63 32t63 -32q14 -22 14 -72v-858zM726 -338l102 163q18 30 33 41q17 12 36 12t36 -11
q35 -21 33 -57q-1 -22 -24 -57l-102 -163q-18 -30 -33 -41q-16 -12 -36 -12q-19 0 -36 11q-35 21 -33 57q1 22 24 57z" />
    <glyph glyph-name="uogonek" unicode="&#x173;" horiz-adv-x="1130" 
d="M170 355v539q0 45 13 67q19 31 60 31q43 0 60 -31q13 -22 13 -67v-514q0 -129 63 -195.5t178 -66.5t180.5 67.5t65.5 194.5v514q0 45 13 67q19 31 60 31t60 -31q13 -22 13 -67v-804q0 -46 -13 -67q-19 -31 -60 -31t-60 31q-13 21 -13 67v18q-108 -120 -276 -120
q-161 0 -255 92q-102 99 -102 275zM681 -338l102 163q18 30 33 41q17 12 36 12q20 0 36 -11q35 -21 33 -57q-1 -22 -24 -57l-102 -163q-18 -30 -33 -41q-16 -12 -36 -12t-36 11q-35 21 -33 57q1 22 24 57z" />
    <glyph glyph-name="Wcircumflex" unicode="&#x174;" horiz-adv-x="1720" 
d="M860 1151l-294 -1071q-12 -46 -35 -66q-23 -22 -57 -22t-57 22q-23 20 -35 66l-310 1235q-12 48 -5 70q6 21 26.5 34t42.5 13q30 0 46 -16q18 -18 30 -66l269 -1077l294 1080q11 40 29 57q21 20 56 20t56 -20q18 -17 29 -57l294 -1080l269 1077q12 48 30 66q16 16 46 16
q22 0 42.5 -13t26.5 -34q7 -22 -5 -70l-310 -1235q-12 -46 -35 -66q-23 -22 -57 -22t-57 22q-23 20 -35 66zM860 1734l-155 -155q-27 -27 -49 -33q-30 -6 -53 17q-24 24 -17 54q6 23 32 49l187 186q27 27 55 27t55 -27l187 -186q26 -26 32 -49q7 -30 -17 -54
q-23 -23 -53 -17q-22 6 -49 33z" />
    <glyph glyph-name="wcircumflex" unicode="&#x175;" horiz-adv-x="1438" 
d="M719 779l-207 -679q-20 -68 -45 -88q-23 -20 -56 -20q-34 0 -57 20q-25 20 -45 88l-232 778q-12 44 -6 67q6 20 25 33.5t42 13.5q26 0 46 -20q14 -14 26 -56l205 -716l206 688q21 68 44 86q22 19 54 19t54 -19q23 -18 44 -86l206 -688l205 716q12 42 26 56q20 20 46 20
q23 0 42 -13.5t25 -33.5q6 -23 -6 -67l-232 -778q-20 -68 -45 -88q-23 -20 -57 -20q-33 0 -56 20q-25 20 -45 88zM719 1360l-155 -155q-27 -27 -49 -33q-30 -6 -53 17q-24 24 -17 54q6 23 32 49l187 186q27 27 55 27t55 -27l187 -186q26 -26 32 -49q7 -30 -17 -54
q-23 -23 -53 -17q-22 6 -49 33z" />
    <glyph glyph-name="Ycircumflex" unicode="&#x176;" horiz-adv-x="1008" 
d="M942 1304l-361 -722v-486q0 -50 -14 -72q-20 -32 -63 -32t-63 32q-14 22 -14 72v486l-361 722q-21 43 -19 66q3 36 39 54q16 8 34 8q19 0 34 -10q20 -13 40 -54l310 -620l310 620q20 41 40 54q15 10 34 10q18 0 34 -8q36 -18 39 -54q2 -23 -19 -66zM504 1734l-155 -155
q-27 -27 -49 -33q-30 -6 -53 17q-24 24 -17 54q6 23 32 49l187 186q27 27 55 27t55 -27l187 -186q26 -26 32 -49q7 -30 -17 -54q-23 -23 -53 -17q-22 6 -49 33z" />
    <glyph glyph-name="ycircumflex" unicode="&#x177;" horiz-adv-x="873" 
d="M436 195l239 727q11 34 27 52t45 18q21 0 40 -12t26 -31q9 -26 -6 -71l-386 -1115q-26 -77 -70 -118q-70 -67 -181 -67q-49 0 -68 15q-22 19 -22 50q0 34 23 51q19 14 53 14q56 0 91.5 27t57.5 94l62 186l-301 863q-15 45 -6 71q7 19 26 31t40 12q29 0 45 -18t27 -52z
M437 1360l-155 -155q-27 -27 -49 -33q-30 -6 -53 17q-24 24 -17 54q6 23 32 49l187 186q27 27 55 27t55 -27l187 -186q26 -26 32 -49q7 -30 -17 -54q-23 -23 -53 -17q-22 6 -49 33z" />
    <glyph glyph-name="Ydieresis" unicode="&#x178;" horiz-adv-x="1008" 
d="M942 1304l-361 -722v-486q0 -50 -14 -72q-20 -32 -63 -32t-63 32q-14 22 -14 72v486l-361 722q-21 43 -19 66q3 36 39 54q16 8 34 8q19 0 34 -10q20 -13 40 -54l310 -620l310 620q20 41 40 54q15 10 34 10q18 0 34 -8q36 -18 39 -54q2 -23 -19 -66zM200 1664
q0 38 26.5 64.5t63.5 26.5q38 0 64.5 -26.5t26.5 -64.5q0 -37 -26.5 -63.5t-64.5 -26.5t-64 26t-26 64zM627 1664q0 38 26.5 64.5t63.5 26.5t64 -26.5t27 -64.5q0 -37 -26.5 -63.5t-64.5 -26.5q-37 0 -63.5 26t-26.5 64z" />
    <glyph glyph-name="Zacute" unicode="&#x179;" horiz-adv-x="1099" 
d="M904 0h-713q-54 0 -75 21q-21 23 -21 53q0 28 26 71l691 1143h-592q-46 0 -66 12q-29 19 -29 56t29 56q20 12 66 12h683q54 0 75 -21q21 -22 21 -53q0 -26 -27 -71l-689 -1143h621q46 0 66 -12q29 -19 29 -56t-29 -56q-20 -12 -66 -12zM515 1670l102 163q18 30 33 41
q16 12 36 12t36 -11q35 -21 33 -57q-1 -22 -24 -57l-102 -163q-18 -30 -33 -41q-16 -12 -36 -12t-36 11q-35 21 -33 57q1 22 24 57z" />
    <glyph glyph-name="zacute" unicode="&#x17a;" horiz-adv-x="909" 
d="M204 984h519q45 0 67 -14q27 -18 27 -51q0 -31 -29 -71l-514 -718h457q44 0 61 -11q28 -19 28 -54t-28 -54q-17 -11 -61 -11h-548q-47 0 -66 14q-28 19 -28 52q0 30 30 71l513 717h-428q-44 0 -61 11q-28 19 -28 54t28 54q17 11 61 11zM438 1303l102 163q18 30 33 41
q17 12 36 12t36 -11q35 -21 33 -57q-1 -22 -24 -57l-102 -163q-18 -30 -33 -41q-16 -12 -36 -12q-19 0 -36 11q-35 21 -33 57q1 22 24 57z" />
    <glyph glyph-name="Zdotaccent" unicode="&#x17b;" horiz-adv-x="1099" 
d="M904 0h-713q-54 0 -75 21q-21 23 -21 53q0 28 26 71l691 1143h-592q-46 0 -66 12q-29 19 -29 56t29 56q20 12 66 12h683q54 0 75 -21q21 -22 21 -53q0 -26 -27 -71l-689 -1143h621q46 0 66 -12q29 -19 29 -56t-29 -56q-20 -12 -66 -12zM462 1677q0 37 26 63.5t64 26.5
t64 -26.5t26 -63.5t-26 -63.5t-64 -26.5t-64 26.5t-26 63.5z" />
    <glyph glyph-name="zdotaccent" unicode="&#x17c;" horiz-adv-x="909" 
d="M204 984h519q45 0 67 -14q27 -18 27 -51q0 -31 -29 -71l-514 -718h457q44 0 61 -11q28 -19 28 -54t-28 -54q-17 -11 -61 -11h-548q-47 0 -66 14q-28 19 -28 52q0 30 30 71l513 717h-428q-44 0 -61 11q-28 19 -28 54t28 54q17 11 61 11zM385 1304q0 38 26.5 64t63.5 26
t63.5 -26t26.5 -64t-26.5 -64t-63.5 -26t-63.5 26t-26.5 64z" />
    <glyph glyph-name="Zcaron" unicode="&#x17d;" horiz-adv-x="1099" 
d="M904 0h-713q-54 0 -75 21q-21 23 -21 53q0 28 26 71l691 1143h-592q-46 0 -66 12q-29 19 -29 56t29 56q20 12 66 12h683q54 0 75 -21q21 -22 21 -53q0 -26 -27 -71l-689 -1143h621q46 0 66 -12q29 -19 29 -56t-29 -56q-20 -12 -66 -12zM397 1842l155 -155l155 155
q27 27 49 33q31 6 53 -17q23 -23 17 -54q-4 -21 -32 -49l-187 -186q-27 -27 -55 -27t-55 27l-187 186q-28 28 -32 49q-6 31 17 54q22 23 53 17q22 -6 49 -33z" />
    <glyph glyph-name="zcaron" unicode="&#x17e;" horiz-adv-x="909" 
d="M204 984h519q45 0 67 -14q27 -18 27 -51q0 -31 -29 -71l-514 -718h457q44 0 61 -11q28 -19 28 -54t-28 -54q-17 -11 -61 -11h-548q-47 0 -66 14q-28 19 -28 52q0 30 30 71l513 717h-428q-44 0 -61 11q-28 19 -28 54t28 54q17 11 61 11zM320 1468l155 -155l155 155
q27 27 49 33q31 6 53 -17q23 -23 17 -54q-4 -21 -32 -49l-187 -186q-27 -27 -55 -27t-55 27l-187 186q-28 28 -32 49q-6 31 17 54q22 23 53 17q22 -6 49 -33z" />
    <glyph glyph-name="longs" unicode="&#x17f;" horiz-adv-x="518" 
d="M327 1159v-1069q0 -46 -13 -67q-19 -31 -60 -31t-60 31q-13 21 -13 67v1074q0 115 65 189.5t185 74.5h26q45 0 65 -12q27 -17 27 -51t-27 -51q-20 -12 -65 -12q-130 0 -130 -143z" />
    <glyph glyph-name="uni018F" unicode="&#x18f;" horiz-adv-x="1300" 
d="M649 1436q216 0 354 -140q51 -51 79.5 -100t43.5 -123t18.5 -148.5t3.5 -212.5q0 -112 -2 -175.5t-9.5 -131t-23.5 -110t-42.5 -84.5t-67.5 -83q-142 -140 -355 -140q-212 0 -353 141q-86 85 -113.5 186.5t-27.5 303.5v28q0 51 21 72t72 21h747q-1 211 -19 302t-81 156
q-99 102 -244 102q-117 0 -199 -62t-121 -176q-15 -46 -36 -64q-18 -16 -47 -16q-31 0 -51 20t-20 56q0 38 24.5 97t66.5 110q140 171 382 171zM303 614v-12q0 -158 19.5 -238.5t78.5 -140.5q99 -99 247 -99q147 0 247 102q57 59 77 139.5t22 248.5h-691z" />
    <glyph glyph-name="florin" unicode="&#x192;" horiz-adv-x="824" 
d="M584 658h-172l-206 -1024q-9 -47 -29 -65q-17 -16 -43 -16q-31 0 -52 21q-15 15 -17.5 34.5t4.5 52.5l201 997h-135q-38 0 -53 10q-24 14 -24 46t24 46q15 10 53 10h157l80 394q26 129 100 196.5t189 67.5h24q45 0 65 -12q27 -17 27 -51t-27 -51q-16 -12 -49 -12h-27
q-64 0 -105.5 -40t-57.5 -116l-76 -376h149q38 0 53 -10q24 -14 24 -46t-24 -46q-15 -10 -53 -10z" />
    <glyph glyph-name="uni01B5" unicode="&#x1b5;" horiz-adv-x="1099" 
d="M904 0h-713q-54 0 -75 21q-21 23 -21 53q0 28 26 71l309 511h-132q-43 0 -60 11q-26 17 -26 51t26 51q17 11 60 11h207l307 508h-592q-46 0 -66 12q-29 19 -29 56t29 56q20 12 66 12h683q54 0 75 -21q21 -22 21 -53q0 -26 -27 -71l-301 -499h126q43 0 60 -11
q26 -17 26 -51t-26 -51q-17 -11 -60 -11h-201l-313 -520h621q46 0 66 -12q29 -19 29 -56t-29 -56q-20 -12 -66 -12z" />
    <glyph glyph-name="uni01B6" unicode="&#x1b6;" horiz-adv-x="909" 
d="M204 984h519q45 0 67 -14q27 -18 27 -51q0 -31 -29 -71l-199 -278h86q38 0 53 -10q24 -14 24 -46t-24 -46q-15 -10 -53 -10h-166l-235 -328h457q44 0 61 -11q28 -19 28 -54t-28 -54q-17 -11 -61 -11h-548q-47 0 -66 14q-28 19 -28 52q0 30 30 71l229 321h-103
q-38 0 -53 10q-24 14 -24 46t24 46q15 10 53 10h183l204 284h-428q-44 0 -61 11q-28 19 -28 54t28 54q17 11 61 11z" />
    <glyph glyph-name="uni01C4" unicode="&#x1c4;" horiz-adv-x="2454" 
d="M299 0q-51 0 -72 21t-21 72v1238q0 51 21 72t72 21h397q121 0 212.5 -36t163.5 -114q31 -33 53 -72t35.5 -88t21.5 -88.5t11.5 -103t4 -101t0.5 -109.5t-0.5 -109.5t-4 -101t-11.5 -103t-21.5 -88.5t-35.5 -88t-53 -72q-72 -78 -163.5 -114t-212.5 -36h-397zM670 1288
h-310v-1152h310q187 0 281 105q32 36 52 84.5t28.5 117.5t10.5 123t2 146t-2 146t-10.5 123t-28.5 117.5t-52 84.5q-94 105 -281 105zM2259 0h-713q-54 0 -75 21q-21 22 -21 53q0 28 26 71l691 1143h-592q-46 0 -66 12q-29 19 -29 56t29 56q20 12 66 12h683q54 0 75 -21
q21 -22 21 -53q0 -26 -27 -71l-689 -1143h621q46 0 66 -12q29 -19 29 -56t-29 -56q-20 -12 -66 -12zM1752 1842l155 -155l155 155q27 27 49 33q31 6 53 -17q23 -23 17 -54q-4 -21 -32 -49l-187 -186q-27 -27 -55 -27t-55 27l-187 186q-28 28 -32 49q-6 31 17 54q22 23 53 17
q22 -6 49 -33z" />
    <glyph glyph-name="uni01C5" unicode="&#x1c5;" horiz-adv-x="2259" 
d="M299 0q-51 0 -72 21t-21 72v1238q0 51 21 72t72 21h397q121 0 212.5 -36t163.5 -114q31 -33 53 -72t35.5 -88t21.5 -88.5t11.5 -103t4 -101t0.5 -109.5t-0.5 -109.5t-4 -101t-11.5 -103t-21.5 -88.5t-35.5 -88t-53 -72q-72 -78 -163.5 -114t-212.5 -36h-397zM670 1288
h-310v-1152h310q187 0 281 105q32 36 52 84.5t28.5 117.5t10.5 123t2 146t-2 146t-10.5 123t-28.5 117.5t-52 84.5q-94 105 -281 105zM1554 984h519q45 0 67 -14q27 -18 27 -51q0 -31 -29 -71l-514 -718h457q44 0 61 -11q28 -19 28 -54t-28 -54q-17 -11 -61 -11h-548
q-47 0 -66 14q-28 19 -28 52q0 30 30 71l513 717h-428q-44 0 -61 11q-28 19 -28 54t28 54q17 11 61 11zM1670 1468l155 -155l155 155q27 27 49 33q31 6 53 -17q23 -23 17 -54q-4 -21 -32 -49l-187 -186q-27 -27 -55 -27t-55 27l-187 186q-28 28 -32 49q-6 31 17 54
q22 23 53 17q22 -6 49 -33z" />
    <glyph glyph-name="uni01C6" unicode="&#x1c6;" horiz-adv-x="2004" 
d="M128 492q0 296 122 418q86 86 240 86q88 0 154 -27t124 -99v464q0 46 13 67q19 31 60 31t60 -31q13 -21 13 -67v-1244q0 -46 -13 -67q-19 -31 -60 -31t-60 31q-13 21 -13 67v28q-58 -74 -123.5 -102t-154.5 -28q-154 0 -240 86q-122 122 -122 418zM274 492
q0 -64 5 -113.5t20.5 -100.5t41.5 -84.5t72 -54.5t108 -21t108 21t72 54.5t41.5 84.5t20.5 100.5t5 113.5t-5 113.5t-20.5 100.5t-41.5 84.5t-72 54.5t-108 21t-108 -21t-72 -54.5t-41.5 -84.5t-20.5 -100.5t-5 -113.5zM1299 984h519q45 0 67 -14q27 -18 27 -51
q0 -31 -29 -71l-514 -718h457q44 0 61 -11q28 -19 28 -54t-28 -54q-17 -11 -61 -11h-548q-47 0 -66 14q-28 19 -28 52q0 30 30 71l513 717h-428q-44 0 -61 11q-28 19 -28 54t28 54q17 11 61 11zM1415 1468l155 -155l155 155q27 27 49 33q31 6 53 -17q23 -23 17 -54
q-4 -21 -32 -49l-187 -186q-27 -27 -55 -27t-55 27l-187 186q-28 28 -32 49q-6 31 17 54q22 23 53 17q22 -6 49 -33z" />
    <glyph glyph-name="uni01C7" unicode="&#x1c7;" horiz-adv-x="2148" 
d="M299 0q-51 0 -72 21t-21 72v1235q0 50 14 72q20 32 63 32t63 -32q14 -22 14 -72v-1192h638q46 0 66 -12q29 -19 29 -56t-29 -56q-20 -12 -66 -12h-699zM1516 124q140 0 216 85.5t76 242.5v876q0 50 14 72q20 32 63 32t63 -32q14 -22 14 -72v-896q0 -203 -124 -323.5
t-322 -120.5q-159 0 -271 83q-40 30 -40 66q0 29 18 49q20 21 47 21q28 0 69 -29q76 -54 177 -54z" />
    <glyph glyph-name="uni01C8" unicode="&#x1c8;" horiz-adv-x="1656" 
d="M299 0q-51 0 -72 21t-21 72v1235q0 50 14 72q20 32 63 32t63 -32q14 -22 14 -72v-1192h638q46 0 66 -12q29 -19 29 -56t-29 -56q-20 -12 -66 -12h-699zM1298 1353q0 41 29 70t70 29t70 -29t29 -70t-29 -70t-70 -29t-70 29t-29 70zM1324 -172v1066q0 46 13 67q19 31 60 31
t60 -31q13 -21 13 -67v-1071q0 -115 -65 -189.5t-185 -74.5h-26q-46 0 -65 12q-27 17 -27 51t27 51q19 12 65 12q130 0 130 143z" />
    <glyph glyph-name="uni01C9" unicode="&#x1c9;" horiz-adv-x="1106" 
d="M322 1334v-1065q0 -143 130 -143q46 0 65 -12q27 -17 27 -51t-27 -51q-19 -12 -65 -12h-26q-120 0 -185 74.5t-65 189.5v1070q0 46 13 67q19 31 60 31t60 -31q13 -21 13 -67zM748 1353q0 41 29 70t70 29t70 -29t29 -70t-29 -70t-70 -29t-70 29t-29 70zM774 -172v1066
q0 46 13 67q19 31 60 31t60 -31q13 -21 13 -67v-1071q0 -115 -65 -189.5t-185 -74.5h-26q-46 0 -65 12q-27 17 -27 51t27 51q20 12 65 12q130 0 130 143z" />
    <glyph glyph-name="uni01CA" unicode="&#x1ca;" horiz-adv-x="2468" 
d="M1836 124q140 0 216 85.5t76 242.5v876q0 50 14 72q20 32 63 32t63 -32q14 -22 14 -72v-896q0 -203 -124 -323.5t-322 -120.5q-159 0 -271 83q-40 30 -40 66q0 29 18 49q20 21 47 21q28 0 69 -29q76 -54 177 -54zM1260 1328v-1235q0 -53 -24 -77t-58 -24q-46 0 -87 61
l-731 1080v-1037q0 -50 -14 -72q-20 -32 -63 -32t-63 32q-14 22 -14 72v1235q0 53 24 77q22 24 58 24q26 0 45.5 -14.5t41.5 -46.5l731 -1080v1037q0 50 14 72q20 32 63 32t63 -32q14 -22 14 -72z" />
    <glyph glyph-name="uni01CB" unicode="&#x1cb;" horiz-adv-x="1975" 
d="M1617 1353q0 41 29 70t70 29t70 -29t29 -70t-29 -70t-70 -29t-70 29t-29 70zM1643 -172v1066q0 46 13 67q19 31 60 31t60 -31q13 -21 13 -67v-1071q0 -115 -65 -189.5t-185 -74.5h-26q-45 0 -65 12q-27 17 -27 51t27 51q19 12 65 12q130 0 130 143zM1260 1328v-1235
q0 -53 -24 -77t-58 -24q-46 0 -87 61l-731 1080v-1037q0 -50 -14 -72q-20 -32 -63 -32t-63 32q-14 22 -14 72v1235q0 53 24 77q22 24 58 24q26 0 45.5 -14.5t41.5 -46.5l731 -1080v1037q0 50 14 72q20 32 63 32t63 -32q14 -22 14 -72z" />
    <glyph glyph-name="uni01CC" unicode="&#x1cc;" horiz-adv-x="1643" 
d="M960 629v-539q0 -45 -13 -67q-19 -31 -60 -31q-43 0 -60 31q-13 22 -13 67v514q0 129 -63 195.5t-178 66.5t-180.5 -67.5t-65.5 -194.5v-514q0 -45 -13 -67q-19 -31 -60 -31t-60 31q-13 22 -13 67v804q0 46 13 67q19 31 60 31t60 -31q13 -21 13 -67v-18q108 120 276 120
q161 0 255 -92q102 -99 102 -275zM1285 1353q0 41 29 70t70 29t70 -29t29 -70t-29 -70t-70 -29t-70 29t-29 70zM1311 -172v1066q0 46 13 67q19 31 60 31t60 -31q13 -21 13 -67v-1071q0 -115 -65 -189.5t-185 -74.5h-26q-45 0 -65 12q-27 17 -27 51t27 51q20 12 65 12
q130 0 130 143z" />
    <glyph glyph-name="uni01F1" unicode="&#x1f1;" horiz-adv-x="2463" 
d="M299 0q-51 0 -72 21t-21 72v1238q0 51 21 72t72 21h397q121 0 212.5 -36t163.5 -114q31 -33 53 -72t35.5 -88t21.5 -88.5t11.5 -103t4 -101t0.5 -109.5t-0.5 -109.5t-4 -101t-11.5 -103t-21.5 -88.5t-35.5 -88t-53 -72q-72 -78 -163.5 -114t-212.5 -36h-397zM670 1288
h-310v-1152h310q187 0 281 105q32 36 52 84.5t28.5 117.5t10.5 123t2 146t-2 146t-10.5 123t-28.5 117.5t-52 84.5q-94 105 -281 105zM2258 0h-713q-54 0 -75 21q-21 22 -21 53q0 28 26 71l691 1143h-592q-46 0 -66 12q-29 19 -29 56t29 56q20 12 66 12h683q54 0 75 -21
q21 -22 21 -53q0 -26 -27 -71l-689 -1143h621q46 0 66 -12q29 -19 29 -56t-29 -56q-20 -12 -66 -12z" />
    <glyph glyph-name="uni01F2" unicode="&#x1f2;" horiz-adv-x="2269" 
d="M299 0q-51 0 -72 21t-21 72v1238q0 51 21 72t72 21h397q121 0 212.5 -36t163.5 -114q31 -33 53 -72t35.5 -88t21.5 -88.5t11.5 -103t4 -101t0.5 -109.5t-0.5 -109.5t-4 -101t-11.5 -103t-21.5 -88.5t-35.5 -88t-53 -72q-72 -78 -163.5 -114t-212.5 -36h-397zM670 1288
h-310v-1152h310q187 0 281 105q32 36 52 84.5t28.5 117.5t10.5 123t2 146t-2 146t-10.5 123t-28.5 117.5t-52 84.5q-94 105 -281 105zM1554 984h519q45 0 67 -14q27 -18 27 -51q0 -31 -29 -71l-514 -718h457q44 0 61 -11q28 -19 28 -54t-28 -54q-17 -11 -61 -11h-548
q-47 0 -66 14q-28 19 -28 52q0 30 30 71l513 717h-428q-44 0 -61 11q-28 19 -28 54t28 54q17 11 61 11z" />
    <glyph glyph-name="uni01F3" unicode="&#x1f3;" horiz-adv-x="2003" 
d="M1298 984h519q45 0 67 -14q27 -18 27 -51q0 -31 -29 -71l-514 -718h457q44 0 61 -11q28 -19 28 -54t-28 -54q-17 -11 -61 -11h-548q-47 0 -66 14q-28 19 -28 52q0 30 30 71l513 717h-428q-44 0 -61 11q-28 19 -28 54t28 54q17 11 61 11zM128 492q0 296 122 418
q86 86 240 86q88 0 154 -27t124 -99v464q0 46 13 67q19 31 60 31t60 -31q13 -21 13 -67v-1244q0 -46 -13 -67q-19 -31 -60 -31t-60 31q-13 21 -13 67v28q-58 -74 -123.5 -102t-154.5 -28q-154 0 -240 86q-122 122 -122 418zM274 492q0 -64 5 -113.5t20.5 -100.5t41.5 -84.5
t72 -54.5t108 -21t108 21t72 54.5t41.5 84.5t20.5 100.5t5 113.5t-5 113.5t-20.5 100.5t-41.5 84.5t-72 54.5t-108 21t-108 -21t-72 -54.5t-41.5 -84.5t-20.5 -100.5t-5 -113.5z" />
    <glyph glyph-name="Aringacute" unicode="&#x1fa;" horiz-adv-x="1222" 
d="M62 118l435 1163q-57 31 -90.5 86.5t-33.5 122.5q0 98 69.5 167.5t167.5 69.5t167.5 -69.5t69.5 -167.5q0 -67 -33.5 -123t-89.5 -86l436 -1163q8 -23 11.5 -38t-0.5 -33t-18 -32q-23 -23 -56 -23q-21 0 -39 13q-20 16 -37 61l-94 256h-633l-94 -256q-17 -45 -37 -61
q-18 -13 -39 -13q-33 0 -56 23q-14 14 -17.5 32.5t0 33t11.5 37.5zM611 1187l-269 -733h537zM472 1490q0 -57 40.5 -97.5t97.5 -40.5t97.5 40.5t40.5 97.5t-40.5 97.5t-97.5 40.5t-97.5 -40.5t-40.5 -97.5zM781 1930l-116 -115q-27 -27 -49 -33q-31 -6 -53 17q-23 23 -17 54
q4 21 32 49l116 115q27 27 49 33q31 6 53 -17q23 -23 17 -54q-4 -21 -32 -49z" />
    <glyph glyph-name="aringacute" unicode="&#x1fb;" horiz-adv-x="1053" 
d="M677 1814l-116 -115q-27 -27 -49 -33q-31 -6 -53 17q-23 23 -17 54q4 21 32 49l116 115q27 27 49 33q31 6 53 -17q23 -23 17 -54q-4 -21 -32 -49zM99 279q0 131 90.5 208t249.5 77h298v80q0 115 -57.5 171t-184.5 56q-73 0 -122 -20t-101 -67q-29 -26 -61 -26
q-27 0 -44 18q-18 21 -18 46q0 48 94 110q101 64 253 64q190 0 288 -83.5t98 -245.5v-577q0 -46 -13 -67q-19 -31 -60 -31t-60 31q-13 21 -13 67v2q-59 -58 -122.5 -81t-159.5 -23q-102 0 -167.5 21.5t-112.5 68.5q-75 78 -75 201zM242 280q0 -169 227 -169q72 0 123.5 13.5
t93.5 53.5q51 49 51 171v105h-282q-105 0 -159 -44.5t-54 -129.5zM269 1374q0 98 69.5 167.5t167.5 69.5t167.5 -69.5t69.5 -167.5t-69.5 -167.5t-167.5 -69.5t-167.5 69.5t-69.5 167.5zM368 1374q0 -57 40.5 -97.5t97.5 -40.5t97.5 40.5t40.5 97.5t-40.5 97.5t-97.5 40.5
t-97.5 -40.5t-40.5 -97.5z" />
    <glyph glyph-name="AEacute" unicode="&#x1fc;" horiz-adv-x="1804" 
d="M810 337h-474l-140 -281q-20 -41 -40 -54q-15 -10 -34 -10q-18 0 -34 8q-36 18 -39 54q-2 23 19 66l607 1215q21 42 51 66q30 23 75 23h806q46 0 66 -12q29 -19 29 -56t-29 -56q-20 -12 -66 -12h-643v-502h534q46 0 66 -12q29 -19 29 -56t-29 -56q-20 -12 -66 -12h-534
v-514h643q46 0 66 -12q29 -19 29 -56t-29 -56q-20 -12 -66 -12h-704q-51 0 -72 21t-21 72v244zM810 469v817l-408 -817h408zM889 1670l102 163q18 30 33 41q16 12 36 12t36 -11q35 -21 33 -57q-1 -22 -24 -57l-102 -163q-18 -30 -33 -41q-16 -12 -36 -12t-36 11
q-35 21 -33 57q1 22 24 57z" />
    <glyph glyph-name="aeacute" unicode="&#x1fd;" horiz-adv-x="1668" 
d="M1167 -12q-245 0 -352 171q-66 -94 -149 -132.5t-212 -38.5q-102 0 -167.5 21.5t-112.5 68.5q-75 78 -75 201q0 131 90.5 208t249.5 77h298v80q0 115 -57.5 171t-184.5 56q-73 0 -122 -20t-101 -67q-29 -26 -61 -26q-27 0 -44 18q-18 21 -18 46q0 48 94 110
q101 64 253 64q254 0 338 -153q105 153 308 153q186 0 294 -124.5t110 -331.5q0 -46 -20 -66q-19 -19 -64 -19h-581q0 -163 75.5 -252t216.5 -89q127 0 211 71q42 35 68 35q24 0 43 -19t19 -44q0 -49 -102 -112q-96 -57 -245 -57zM881 565h522q-4 94 -31 160
q-28 68 -89 107.5t-141 39.5t-141.5 -40t-88.5 -107q-27 -66 -31 -160zM242 280q0 -169 227 -169q72 0 123.5 13.5t93.5 53.5q51 49 51 171v105h-282q-105 0 -159 -44.5t-54 -129.5zM795 1303l102 163q18 30 33 41q16 12 36 12t36 -11q35 -21 33 -57q-1 -22 -24 -57
l-102 -163q-18 -30 -33 -41q-16 -12 -36 -12t-36 11q-35 21 -33 57q1 22 24 57z" />
    <glyph glyph-name="Oslashacute" unicode="&#x1fe;" horiz-adv-x="1304" 
d="M249 21l52 104q-42 41 -69 84t-43.5 86.5t-24.5 111t-10 131.5t-2 174q0 112 2 175.5t9.5 130.5t23.5 110t42 85t67 83q142 140 356 140q138 0 246 -62l43 87q19 38 34 49q28 21 63 4q35 -18 35 -53q0 -21 -18 -57l-53 -105q52 -52 82 -102t45 -124t19 -149t4 -212
q0 -112 -2 -175.5t-9.5 -130.5t-23.5 -110t-42 -85t-67 -83q-142 -140 -356 -140q-140 0 -247 61l-42 -85q-19 -38 -34 -49q-28 -21 -63 -4t-35 53q0 21 18 57zM381 272l464 972q-84 57 -193 57q-147 0 -247 -102q-64 -65 -81.5 -160t-17.5 -327q0 -199 13 -288t62 -152z
M652 123q147 0 246 102q64 66 82 161t18 326q0 199 -13 288t-62 152l-464 -972q84 -57 193 -57zM613 1670l102 163q18 30 33 41q16 12 36 12t36 -11q35 -21 33 -57q-1 -22 -24 -57l-102 -163q-18 -30 -33 -41q-16 -12 -36 -12t-36 11q-35 21 -33 57q1 22 24 57z" />
    <glyph glyph-name="oslashacute" unicode="&#x1ff;" horiz-adv-x="1064" 
d="M532 996q115 0 205 -52l53 90q22 39 47 45q20 5 39 -7q28 -16 27 -46q-1 -19 -18 -46l-63 -104q67 -71 90.5 -164t23.5 -220q0 -130 -25 -225t-96 -167q-112 -112 -283 -112q-117 0 -207 53l-54 -92q-22 -39 -47 -45q-20 -5 -39 7q-28 16 -27 46q1 19 18 46l64 107
q-65 71 -88.5 163.5t-23.5 218.5q0 130 25 225t96 167q112 112 283 112zM326 230l349 593q-65 43 -143 43q-106 0 -179 -73q-49 -49 -64 -123.5t-15 -180.5q0 -182 52 -259zM738 754l-349 -593q65 -43 143 -43q106 0 179 73q49 49 64 123.5t15 180.5q0 182 -52 259z
M495 1303l102 163q18 30 33 41q17 12 36 12q20 0 36 -11q35 -21 33 -57q-1 -22 -24 -57l-102 -163q-18 -30 -33 -41q-16 -12 -36 -12t-36 11q-35 21 -33 57q1 22 24 57z" />
    <glyph glyph-name="Scommaaccent" unicode="&#x218;" horiz-adv-x="1177" 
d="M659 635l-167 26q-86 13 -146 37.5t-113 71.5q-110 97 -110 265q0 182 123 291.5t333 109.5q108 0 182 -21.5t167 -78.5q59 -36 59 -78q0 -27 -17 -45q-19 -22 -48 -22q-26 0 -70 28q-72 49 -132 67t-147 18q-141 0 -221.5 -71.5t-80.5 -190.5q0 -111 66 -167
q39 -33 81 -50.5t110 -27.5l157 -24q100 -16 158 -38t103 -61q119 -100 119 -282q0 -186 -134.5 -295t-358.5 -109q-130 0 -218.5 27t-186.5 93q-64 42 -64 87q0 31 21 52q19 19 47 19q30 0 71 -32q79 -61 154.5 -85.5t180.5 -24.5q158 0 247.5 69t89.5 194q0 118 -69 179
q-34 30 -71 43.5t-115 25.5zM404 -338l102 163q18 30 33 41q17 12 36 12t36 -11q35 -21 33 -57q-1 -22 -24 -57l-102 -163q-18 -30 -33 -41q-16 -12 -36 -12q-19 0 -36 11q-35 21 -33 57q1 22 24 57z" />
    <glyph glyph-name="scommaaccent" unicode="&#x219;" horiz-adv-x="992" 
d="M145 82q-48 33 -48 68q0 29 23 50q16 15 42 15q28 0 66 -28q103 -74 259 -74q127 0 194.5 43.5t67.5 129.5q0 66 -40 100.5t-124 42.5l-162 15q-294 26 -294 264q0 132 100.5 210.5t261.5 78.5q153 0 275 -62q35 -18 49 -36q11 -16 11 -37q0 -19 -16 -39q-20 -21 -46 -21
q-20 0 -55 19q-101 53 -220 53q-105 0 -162.5 -42t-57.5 -120q0 -66 42 -100t131 -42l158 -15q140 -13 215 -74t75 -193q0 -140 -110 -220t-291 -80q-209 0 -344 94zM322 -338l102 163q18 30 33 41q17 12 36 12t36 -11q35 -21 33 -57q-1 -22 -24 -57l-102 -163
q-18 -30 -33 -41q-16 -12 -36 -12q-19 0 -36 11q-35 21 -33 57q1 22 24 57z" />
    <glyph glyph-name="uni021A" unicode="&#x21a;" horiz-adv-x="1094" 
d="M146 1424h802q46 0 66 -12q29 -19 29 -56t-29 -56q-20 -12 -66 -12h-324v-1192q0 -50 -14 -72q-20 -32 -63 -32t-63 32q-14 22 -14 72v1192h-324q-46 0 -66 12q-29 19 -29 56t29 56q20 12 66 12zM361 -338l102 163q18 30 33 41q16 12 36 12t36 -11q35 -21 33 -57
q-1 -22 -24 -57l-102 -163q-18 -30 -33 -41q-16 -12 -36 -12q-19 0 -36 11q-35 21 -33 57q1 22 24 57z" />
    <glyph glyph-name="uni021B" unicode="&#x21b;" horiz-adv-x="672" 
d="M357 872v-603q0 -143 130 -143q45 0 65 -12q27 -17 27 -51t-27 -51q-20 -12 -65 -12h-26q-120 0 -185 74.5t-65 189.5v608h-69q-38 0 -53 10q-24 14 -24 46t24 46q15 10 53 10h69v211q0 46 13 67q19 31 60 31t60 -31q13 -21 13 -67v-211h145q38 0 53 -10q24 -14 24 -46
t-24 -46q-15 -10 -53 -10h-145zM209 -338l102 163q18 30 33 41q16 12 36 12t36 -11q35 -21 33 -57q-1 -22 -24 -57l-102 -163q-18 -30 -33 -41q-16 -12 -36 -12q-19 0 -36 11q-35 21 -33 57q1 22 24 57z" />
    <glyph glyph-name="uni0237" unicode="&#x237;" horiz-adv-x="518" 
d="M186 -172v1066q0 46 13 67q19 31 60 31t60 -31q13 -21 13 -67v-1071q0 -115 -65 -189.5t-185 -74.5h-26q-46 0 -65 12q-27 17 -27 51t27 51q20 12 65 12q130 0 130 143z" />
    <glyph glyph-name="uni0259" unicode="&#x259;" horiz-adv-x="1058" 
d="M206 529h581q0 163 -75.5 252t-216.5 89q-127 0 -211 -71q-42 -35 -68 -35q-24 0 -43 19t-19 44q0 49 102 112q96 57 245 57q203 0 317 -125.5t114 -378.5q0 -241 -108.5 -372.5t-297.5 -131.5q-186 0 -294 124.5t-110 331.5q0 46 20 66q19 19 64 19zM787 419h-522
q4 -94 31 -160q28 -68 89 -107.5t141 -39.5t141.5 40t88.5 107q27 66 31 160z" />
    <glyph glyph-name="uni02BB" unicode="&#x2bb;" horiz-adv-x="526" 
d="M350 1316l-72 -216q-14 -43 -33 -59q-16 -15 -42 -15q-24 0 -45.5 15t-26.5 37q-5 25 9 68l72 216q14 43 33 59q17 15 42 15q24 0 45.5 -15t26.5 -37q5 -25 -9 -68z" />
    <glyph glyph-name="afii57929" unicode="&#x2bc;" horiz-adv-x="526" 
d="M350 1316l-72 -216q-14 -43 -33 -59q-16 -15 -42 -15q-24 0 -45.5 15t-26.5 37q-5 25 9 68l72 216q14 43 33 59q17 15 42 15q24 0 45.5 -15t26.5 -37q5 -25 -9 -68z" />
    <glyph glyph-name="circumflex" unicode="&#x2c6;" horiz-adv-x="1064" 
d="M532 1360l-155 -155q-27 -27 -49 -33q-30 -6 -53 17q-24 24 -17 54q6 23 32 49l187 186q27 27 55 27t55 -27l187 -186q26 -26 32 -49q7 -30 -17 -54q-23 -23 -53 -17q-22 6 -49 33z" />
    <glyph glyph-name="caron" unicode="&#x2c7;" horiz-adv-x="1064" 
d="M377 1468l155 -155l155 155q27 27 49 33q31 6 53 -17q23 -23 17 -54q-4 -21 -32 -49l-187 -186q-27 -27 -55 -27t-55 27l-187 186q-28 28 -32 49q-6 31 17 54q22 23 53 17q22 -6 49 -33z" />
    <glyph glyph-name="breve" unicode="&#x2d8;" horiz-adv-x="1064" 
d="M532 1180q-135 0 -244 106q-31 29 -33 55q-3 25 16 45q19 21 45 19q21 -2 47 -26q85 -80 169 -80t169 80q26 24 47 26q26 2 45 -19q19 -20 16 -45q-2 -26 -33 -55q-109 -106 -244 -106z" />
    <glyph glyph-name="dotaccent" unicode="&#x2d9;" horiz-adv-x="1064" 
d="M442 1304q0 38 26 64t64 26t64 -26t26 -64t-26 -64t-64 -26t-64 26t-26 64z" />
    <glyph glyph-name="ring" unicode="&#x2da;" horiz-adv-x="1064" 
d="M295 1374q0 98 69.5 167.5t167.5 69.5t167.5 -69.5t69.5 -167.5t-69.5 -167.5t-167.5 -69.5t-167.5 69.5t-69.5 167.5zM394 1374q0 -57 40.5 -97.5t97.5 -40.5t97.5 40.5t40.5 97.5t-40.5 97.5t-97.5 40.5t-97.5 -40.5t-40.5 -97.5z" />
    <glyph glyph-name="ogonek" unicode="&#x2db;" horiz-adv-x="1064" 
d="M349 -338l102 163q18 30 33 41q16 12 36 12t36 -11q35 -21 33 -57q-1 -22 -24 -57l-102 -163q-18 -30 -33 -41q-16 -12 -36 -12t-36 11q-35 21 -33 57q1 22 24 57z" />
    <glyph glyph-name="tilde" unicode="&#x2dc;" horiz-adv-x="1064" 
d="M517 1258q-70 41 -111 41q-24 0 -42.5 -6.5t-45.5 -29.5q-31 -26 -51 -26q-22 0 -37 15t-15 39q0 30 36 61q72 62 153 62q41 0 70.5 -10.5t72.5 -35.5q70 -41 111 -41q24 0 42.5 6.5t45.5 29.5q31 26 51 26q22 0 37 -15t15 -39q0 -30 -36 -61q-72 -62 -153 -62
q-41 0 -70.5 10.5t-72.5 35.5z" />
    <glyph glyph-name="hungarumlaut" unicode="&#x2dd;" horiz-adv-x="1064" 
d="M341 1303l102 163q18 30 33 41q17 12 36 12q20 0 36 -11q35 -21 33 -57q-1 -22 -24 -57l-102 -163q-18 -30 -33 -41q-17 -12 -36 -12q-20 0 -36 11q-35 21 -33 57q1 22 24 57zM671 1303l102 163q18 30 33 41q16 12 36 12t36 -11q35 -21 33 -57q-1 -22 -24 -57l-102 -163
q-18 -30 -33 -41q-16 -12 -36 -12t-36 11q-35 21 -33 57q1 22 24 57z" />
    <glyph glyph-name="uni0394" unicode="&#x394;" horiz-adv-x="1214" 
d="M607 1187l-385 -1051h770zM1059 -1l-904 1q-64 0 -87 21q-20 19 -20 50q0 21 19 72l453 1209q13 35 30 55q23 25 57 25t57 -25q17 -20 30 -55l453 -1210q19 -51 19 -72q0 -31 -20 -50q-23 -21 -87 -21z" />
    <glyph glyph-name="uni03A9" unicode="&#x3a9;" horiz-adv-x="1368" 
d="M684 1301q-146 0 -245 -102q-64 -66 -82 -161t-19 -326q0 -180 9.5 -277.5t40.5 -150.5q53 -93 149 -149q47 -29 47 -69q0 -33 -22 -52q-18 -14 -63 -14h-248q-46 0 -66 12q-29 19 -29 56t29 56q20 12 66 12h107q-81 67 -115 133q-36 70 -47 169.5t-11 273.5
q0 112 2 175.5t9.5 130.5t23.5 110t42 85t67 83q142 140 355 140t355 -140q41 -41 67 -83t42 -85t23.5 -110t9.5 -130.5t2 -175.5q0 -174 -11 -273.5t-47 -169.5q-34 -66 -115 -133h107q46 0 66 -12q29 -19 29 -56t-29 -56q-20 -12 -66 -12h-248q-45 0 -63 14q-22 19 -22 52
q0 40 47 69q96 56 149 149q31 53 40.5 150.5t9.5 277.5q-1 231 -19 326t-82 161q-99 102 -245 102z" />
    <glyph glyph-name="uni03BC" unicode="&#x3bc;" horiz-adv-x="1139" 
d="M327 346q8 -113 71.5 -171.5t169.5 -58.5q113 0 178.5 67.5t65.5 194.5v516q0 46 13 67q19 31 60 31t60 -31q13 -21 13 -67v-804q0 -46 -13 -67q-19 -31 -60 -31t-60 31q-13 21 -13 67v18q-105 -120 -276 -120q-127 0 -209 72v-409q0 -46 -13 -67q-19 -31 -60 -31t-60 31
q-13 21 -13 67v1243q0 46 13 67q19 31 60 31t60 -31q13 -21 13 -67v-548z" />
    <glyph glyph-name="pi" unicode="&#x3c0;" horiz-adv-x="1143" 
d="M327 854v-764q0 -46 -13 -67q-19 -31 -60 -31t-60 31q-13 21 -13 67v806q0 48 20 68t68 20h605q48 0 68 -20t20 -68v-806q0 -46 -13 -67q-19 -31 -60 -31t-60 31q-13 21 -13 67v764h-489z" />
    <glyph glyph-name="uni0400" unicode="&#x400;" horiz-adv-x="1200" 
d="M299 1424h704q46 0 66 -12q29 -19 29 -56t-29 -56q-20 -12 -66 -12h-643v-502h534q46 0 66 -12q29 -19 29 -56t-29 -56q-20 -12 -66 -12h-534v-514h643q46 0 66 -12q29 -19 29 -56t-29 -56q-20 -12 -66 -12h-704q-51 0 -72 21t-21 72v1238q0 51 21 72t72 21zM422 1817
q0 37 34 58q18 11 38 11q22 0 38.5 -13t34.5 -43l97 -155q25 -40 25 -62q0 -37 -34 -58q-18 -11 -38 -11q-22 0 -38.5 13t-34.5 43l-97 155q-25 40 -25 62z" />
    <glyph glyph-name="afii10023" unicode="&#x401;" horiz-adv-x="1200" 
d="M299 1424h704q46 0 66 -12q29 -19 29 -56t-29 -56q-20 -12 -66 -12h-643v-502h534q46 0 66 -12q29 -19 29 -56t-29 -56q-20 -12 -66 -12h-534v-514h643q46 0 66 -12q29 -19 29 -56t-29 -56q-20 -12 -66 -12h-704q-51 0 -72 21t-21 72v1238q0 51 21 72t72 21zM323 1664
q0 38 26.5 64.5t63.5 26.5t64 -26.5t27 -64.5q0 -37 -26.5 -63.5t-64.5 -26.5q-37 0 -63.5 26t-26.5 64zM750 1664q0 38 26.5 64.5t63.5 26.5q38 0 64.5 -26.5t26.5 -64.5q0 -37 -26.5 -63.5t-64.5 -26.5t-64 26t-26 64z" />
    <glyph glyph-name="afii10051" unicode="&#x402;" horiz-adv-x="1491" 
d="M871 136q142 2 219 77t77 222q0 150 -78.5 225.5t-223.5 75.5h-302v-640q0 -50 -14 -72q-20 -32 -63 -32t-63 32q-14 22 -14 72v1192h-263q-46 0 -66 12q-29 19 -29 56t29 56q20 12 66 12h800q46 0 66 -12q29 -19 29 -56t-29 -56q-20 -12 -66 -12h-383v-418h318
q201 0 320.5 -115t119.5 -319q0 -203 -118 -319.5t-315 -116.5h-17q-39 0 -55 11q-31 19 -31 57t31 57q16 11 55 11z" />
    <glyph glyph-name="afii10052" unicode="&#x403;" horiz-adv-x="1123" 
d="M977 1424q46 0 66 -12q29 -19 29 -56t-29 -56q-20 -12 -66 -12h-617v-1192q0 -50 -14 -72q-20 -32 -63 -32t-63 32q-14 22 -14 72v1235q0 51 21 72t72 21h678zM545 1670l102 163q18 30 33 41q16 12 36 12t36 -11q35 -21 33 -57q-1 -22 -24 -57l-102 -163q-18 -30 -33 -41
q-17 -12 -36 -12q-20 0 -36 11q-35 21 -33 57q1 22 24 57z" />
    <glyph glyph-name="afii10053" unicode="&#x404;" horiz-adv-x="1276" 
d="M152 712q0 138 3.5 212.5t18.5 148.5t43.5 123t79.5 100q138 140 354 140q242 0 382 -171q42 -51 66.5 -110t24.5 -97q0 -36 -20 -56t-51 -20q-29 0 -47 16q-21 18 -36 64q-39 114 -121 176t-199 62q-145 0 -244 -102q-60 -62 -79 -146t-21 -266h448q46 0 66 -12
q29 -19 29 -56t-29 -56q-20 -12 -66 -12h-448q1 -189 20 -275.5t80 -148.5q99 -102 244 -102q117 0 199 62t121 176q15 46 36 64q18 16 47 16q31 0 51 -20t20 -56q0 -38 -24.5 -97t-66.5 -110q-140 -171 -382 -171q-216 0 -354 140q-51 51 -79.5 100t-43.5 123t-18.5 148.5
t-3.5 212.5z" />
    <glyph glyph-name="afii10054" unicode="&#x405;" horiz-adv-x="1177" 
d="M659 635l-167 26q-86 13 -146 37.5t-113 71.5q-110 97 -110 265q0 182 123 291.5t333 109.5q108 0 182 -21.5t167 -78.5q59 -36 59 -78q0 -27 -17 -45q-19 -22 -48 -22q-26 0 -70 28q-72 49 -132 67t-147 18q-141 0 -221.5 -71.5t-80.5 -190.5q0 -111 66 -167
q39 -33 81 -50.5t110 -27.5l157 -24q100 -16 158 -38t103 -61q119 -100 119 -282q0 -186 -134.5 -295t-358.5 -109q-130 0 -218.5 27t-186.5 93q-64 42 -64 87q0 31 21 52q19 19 47 19q30 0 71 -32q79 -61 154.5 -85.5t180.5 -24.5q158 0 247.5 69t89.5 194q0 118 -69 179
q-34 30 -71 43.5t-115 25.5z" />
    <glyph glyph-name="afii10055" unicode="&#x406;" horiz-adv-x="566" 
d="M360 1328v-1232q0 -50 -14 -72q-20 -32 -63 -32t-63 32q-14 22 -14 72v1232q0 50 14 72q20 32 63 32t63 -32q14 -22 14 -72z" />
    <glyph glyph-name="afii10056" unicode="&#x407;" horiz-adv-x="566" 
d="M5 1664q0 38 26.5 64.5t63.5 26.5t64 -26.5t27 -64.5q0 -37 -26.5 -63.5t-64.5 -26.5q-37 0 -63.5 26t-26.5 64zM380 1664q0 38 26.5 64.5t63.5 26.5q38 0 64.5 -26.5t26.5 -64.5q0 -37 -26.5 -63.5t-64.5 -26.5t-64 26t-26 64zM360 1328v-1232q0 -50 -14 -72
q-20 -32 -63 -32t-63 32q-14 22 -14 72v1232q0 50 14 72q20 32 63 32t63 -32q14 -22 14 -72z" />
    <glyph glyph-name="afii10057" unicode="&#x408;" horiz-adv-x="993" 
d="M362 124q140 0 216 85.5t76 242.5v876q0 50 14 72q20 32 63 32t63 -32q14 -22 14 -72v-896q0 -203 -124 -323.5t-322 -120.5q-159 0 -271 83q-40 30 -40 66q0 29 18 49q20 21 47 21q28 0 69 -29q76 -54 177 -54z" />
    <glyph glyph-name="afii10058" unicode="&#x409;" horiz-adv-x="2122" 
d="M1217 1331v-493h378q196 0 319 -115.5t123 -304.5t-123 -303.5t-319 -114.5h-439q-51 0 -72 21t-21 72v1195h-498v-487q0 -223 -26.5 -378.5t-81 -248t-130 -133.5t-181.5 -41q-46 0 -66 12q-29 19 -29 56t29 56q15 10 47 11q72 3 123 38t90 114.5t58 219.5t19 344v480
q0 51 21 72t72 21h614q51 0 72 -21t21 -72zM1217 136h367q137 0 218 72.5t81 210.5q0 137 -81 210t-218 73h-367v-566z" />
    <glyph glyph-name="afii10059" unicode="&#x40a;" horiz-adv-x="2091" 
d="M1032 93v609h-672v-606q0 -50 -14 -72q-20 -32 -63 -32t-63 32q-14 22 -14 72v1232q0 50 14 72q20 32 63 32t63 -32q14 -22 14 -72v-490h672v490q0 50 14 72q20 32 63 32t63 -32q14 -22 14 -72v-490h378q196 0 319 -115.5t123 -304.5t-123 -303.5t-319 -114.5h-439
q-51 0 -72 21t-21 72zM1186 136h367q137 0 218 72.5t81 210.5q0 137 -81 210t-218 73h-367v-566z" />
    <glyph glyph-name="afii10060" unicode="&#x40b;" horiz-adv-x="1490" 
d="M146 1424h801q46 0 66 -12q29 -19 29 -56t-29 -56q-20 -12 -66 -12h-393v-418h320q199 0 319.5 -114t120.5 -302v-358q0 -50 -14 -72q-20 -32 -63 -32t-63 32q-14 22 -14 72v358q0 133 -79.5 207.5t-222.5 74.5h-304v-640q0 -50 -14 -72q-20 -32 -63 -32t-63 32
q-14 22 -14 72v1192h-254q-46 0 -66 12q-29 19 -29 56t29 56q20 12 66 12z" />
    <glyph glyph-name="afii10061" unicode="&#x40c;" horiz-adv-x="1202" 
d="M1120 65q0 -33 -26 -55q-22 -18 -49 -18q-33 0 -71 47l-516 627h-98v-570q0 -50 -14 -72q-20 -32 -63 -32t-63 32q-14 22 -14 72v1232q0 50 14 72q20 32 63 32t63 -32q14 -22 14 -72v-523h92l477 580q38 47 71 47q26 0 49 -18q26 -22 26 -55q0 -26 -34 -67l-457 -543
l502 -617q34 -41 34 -67zM580 1670l102 163q18 30 33 41q17 12 36 12t36 -11q35 -21 33 -57q-1 -22 -24 -57l-102 -163q-18 -30 -33 -41q-17 -12 -36 -12t-36 11q-35 21 -33 57q1 22 24 57z" />
    <glyph glyph-name="uni040D" unicode="&#x40d;" horiz-adv-x="1433" 
d="M360 1328l-1 -1059l702 1101q21 31 41 46.5t47 15.5q32 0 55 -21q23 -22 23 -79v-1236q0 -50 -14 -72q-20 -32 -63 -32t-63 32q-14 22 -14 72v1056l-701 -1098q-21 -31 -41 -46.5t-47 -15.5q-32 0 -55 21q-23 22 -23 79v1236q0 50 14 72q20 32 63 32t63 -32
q14 -22 14 -72zM527 1817q0 37 34 58q18 11 38 11q22 0 38.5 -13t34.5 -43l97 -155q25 -40 25 -62q0 -37 -34 -58q-18 -11 -38 -11q-22 0 -38.5 13t-34.5 43l-97 155q-25 40 -25 62z" />
    <glyph glyph-name="afii10062" unicode="&#x40e;" horiz-adv-x="1016" 
d="M189 1358l327 -845l311 845q17 45 37 61q18 13 39 13q33 0 56 -23q14 -14 17.5 -32.5t0 -33t-11.5 -37.5l-390 -1040q-51 -136 -123 -201t-178 -65h-36q-46 0 -66 12q-29 19 -29 56q0 38 29 56q19 11 69 11q67 0 105.5 30.5t69.5 102.5l23 51l-388 987q-9 22 -12.5 37.5
t0.5 33.5t18 32q23 23 56 23q21 0 39 -13q20 -16 37 -61zM528 1553q-135 0 -244 106q-31 29 -33 55q-3 25 16 45q19 21 45 19q21 -2 47 -26q85 -80 169 -80t169 80q26 24 47 26q26 2 45 -19q19 -20 16 -45q-2 -26 -33 -55q-109 -106 -244 -106z" />
    <glyph glyph-name="afii10145" unicode="&#x40f;" horiz-adv-x="1391" 
d="M1185 93q0 -51 -21 -72t-72 -21h-319v-248q0 -50 -14 -72q-20 -32 -63 -32t-63 32q-14 22 -14 72v248h-320q-51 0 -72 21t-21 72v1235q0 50 14 72q20 32 63 32t63 -32q14 -22 14 -72v-1191h671v1191q0 50 14 72q20 32 63 32t63 -32q14 -22 14 -72v-1235z" />
    <glyph glyph-name="afii10017" unicode="&#x410;" horiz-adv-x="1222" 
d="M62 118l462 1234q13 35 30 55q23 25 57 25t57 -25q17 -21 30 -55l462 -1234q8 -23 11.5 -38t-0.5 -33t-18 -32q-23 -23 -56 -23q-21 0 -39 13q-20 16 -37 61l-94 256h-633l-94 -256q-17 -45 -37 -61q-18 -13 -39 -13q-33 0 -56 23q-14 14 -17.5 32.5t0 33t11.5 37.5z
M611 1187l-269 -733h537z" />
    <glyph glyph-name="afii10018" unicode="&#x411;" horiz-adv-x="1265" 
d="M1006 1288h-646v-450h378q196 0 319 -115.5t123 -304.5t-123 -303.5t-319 -114.5h-439q-51 0 -72 21t-21 72v1238q0 51 21 72t72 21h707q46 0 66 -12q29 -19 29 -56t-29 -56q-20 -12 -66 -12zM360 136h367q137 0 218 72.5t81 210.5q0 137 -81 210t-218 73h-367v-566z" />
    <glyph glyph-name="afii10019" unicode="&#x412;" horiz-adv-x="1340" 
d="M299 0q-51 0 -72 21t-21 72v1238q0 51 21 72t72 21h445q190 0 306 -102t116 -278q0 -110 -59.5 -194t-152.5 -118q107 -39 170.5 -126.5t63.5 -211.5q0 -189 -115.5 -291.5t-310.5 -102.5h-463zM748 658h-388v-522h388q132 0 209 71t77 191t-77 190t-209 70zM732 1288
h-372v-494h372q125 0 202.5 63t77.5 185t-77.5 184t-202.5 62z" />
    <glyph glyph-name="afii10020" unicode="&#x413;" horiz-adv-x="1123" 
d="M977 1424q46 0 66 -12q29 -19 29 -56t-29 -56q-20 -12 -66 -12h-617v-1192q0 -50 -14 -72q-20 -32 -63 -32t-63 32q-14 22 -14 72v1235q0 51 21 72t72 21h678z" />
    <glyph glyph-name="afii10021" unicode="&#x414;" horiz-adv-x="1376" 
d="M193 0v-248q0 -50 -14 -72q-20 -32 -63 -32t-63 32q-14 22 -14 72v291q0 51 21 72t72 21h38q94 161 135 359t41 465v371q0 51 21 72t72 21h600q51 0 72 -21t21 -72v-1195h77q51 0 72 -21t21 -72v-291q0 -50 -14 -72q-20 -32 -63 -32t-63 32q-14 22 -14 72v248h-955z
M978 1288h-486v-432q0 -443 -159 -720h645v1152z" />
    <glyph glyph-name="afii10022" unicode="&#x415;" horiz-adv-x="1200" 
d="M299 1424h704q46 0 66 -12q29 -19 29 -56t-29 -56q-20 -12 -66 -12h-643v-502h534q46 0 66 -12q29 -19 29 -56t-29 -56q-20 -12 -66 -12h-534v-514h643q46 0 66 -12q29 -19 29 -56t-29 -56q-20 -12 -66 -12h-704q-51 0 -72 21t-21 72v1238q0 51 21 72t72 21z" />
    <glyph glyph-name="afii10024" unicode="&#x416;" horiz-adv-x="1818" 
d="M82 65q0 26 34 67l502 617l-457 543q-34 41 -34 67q0 33 26 55q23 18 49 18q33 0 71 -47l477 -580h82v523q0 50 14 72q20 32 63 32t63 -32q14 -22 14 -72v-523h82l477 580q38 47 71 47q26 0 49 -18q26 -22 26 -55q0 -26 -34 -67l-457 -543l502 -617q34 -41 34 -67
q0 -33 -26 -55q-22 -18 -49 -18q-33 0 -71 47l-516 627h-88v-570q0 -50 -14 -72q-20 -32 -63 -32t-63 32q-14 22 -14 72v570h-88l-516 -627q-38 -47 -71 -47q-27 0 -49 18q-26 22 -26 55z" />
    <glyph glyph-name="afii10025" unicode="&#x417;" horiz-adv-x="1243" 
d="M142 1061q0 39 25 96t65 105q143 174 391 174q195 0 320 -103.5t125 -274.5q0 -230 -209 -324q232 -84 232 -343q0 -181 -134 -292t-334 -111q-255 0 -399 173q-40 48 -64 105t-24 97q0 33 20 55q19 20 53 20q29 0 49 -17q20 -18 34 -59q37 -114 122.5 -177t210.5 -63
q138 0 225 74.5t87 200.5q0 132 -75 199t-215 67h-101q-44 0 -63 11q-28 19 -28 54t28 54q19 11 63 11h106q125 0 193.5 67.5t68.5 191.5q0 119 -78.5 184.5t-210.5 65.5q-121 0 -204.5 -62.5t-123.5 -176.5q-13 -37 -31.5 -57t-50.5 -20q-31 0 -52 21q-21 19 -21 54z" />
    <glyph glyph-name="afii10026" unicode="&#x418;" horiz-adv-x="1433" 
d="M360 1328l-1 -1059l702 1101q21 31 41 46.5t47 15.5q32 0 55 -21q23 -22 23 -79v-1236q0 -50 -14 -72q-20 -32 -63 -32t-63 32q-14 22 -14 72v1056l-701 -1098q-21 -31 -41 -46.5t-47 -15.5q-32 0 -55 21q-23 22 -23 79v1236q0 50 14 72q20 32 63 32t63 -32
q14 -22 14 -72z" />
    <glyph glyph-name="afii10027" unicode="&#x419;" horiz-adv-x="1433" 
d="M360 1328l-1 -1059l702 1101q21 31 41 46.5t47 15.5q32 0 55 -21q23 -22 23 -79v-1236q0 -50 -14 -72q-20 -32 -63 -32t-63 32q-14 22 -14 72v1056l-701 -1098q-21 -31 -41 -46.5t-47 -15.5q-32 0 -55 21q-23 22 -23 79v1236q0 50 14 72q20 32 63 32t63 -32
q14 -22 14 -72zM732 1553q-135 0 -244 106q-31 29 -33 55q-3 25 16 45q19 21 45 19q21 -2 47 -26q85 -80 169 -80t169 80q26 24 47 26q26 2 45 -19q19 -20 16 -45q-2 -26 -33 -55q-109 -106 -244 -106z" />
    <glyph glyph-name="afii10028" unicode="&#x41a;" horiz-adv-x="1202" 
d="M1120 65q0 -33 -26 -55q-22 -18 -49 -18q-33 0 -71 47l-516 627h-98v-570q0 -50 -14 -72q-20 -32 -63 -32t-63 32q-14 22 -14 72v1232q0 50 14 72q20 32 63 32t63 -32q14 -22 14 -72v-523h92l477 580q38 47 71 47q26 0 49 -18q26 -22 26 -55q0 -26 -34 -67l-457 -543
l502 -617q34 -41 34 -67z" />
    <glyph glyph-name="afii10029" unicode="&#x41b;" horiz-adv-x="1423" 
d="M565 1288v-487q0 -223 -26.5 -378.5t-81 -248t-130 -133.5t-181.5 -41q-48 0 -65 12q-30 19 -30 56t30 56q17 11 46 11q71 2 122.5 37t90.5 115.5t58 220.5t19 343v480q0 51 21 72t72 21h614q51 0 72 -21t21 -72v-1235q0 -50 -14 -72q-20 -32 -63 -32t-63 32
q-14 22 -14 72v1192h-498z" />
    <glyph glyph-name="afii10030" unicode="&#x41c;" horiz-adv-x="1632" 
d="M816 212q-32 0 -52 17.5t-37 53.5l-367 790v-977q0 -50 -14 -72q-20 -32 -63 -32t-63 32q-14 22 -14 72v1238q0 51 24 75q22 23 55 23q27 0 46 -12q22 -13 41 -53l444 -958l444 958q19 40 41 53q19 12 46 12q33 0 55 -23q24 -24 24 -75v-1238q0 -50 -14 -72
q-20 -32 -63 -32t-63 32q-14 22 -14 72v977l-367 -790q-17 -36 -37 -53.5t-52 -17.5z" />
    <glyph glyph-name="afii10031" unicode="&#x41d;" horiz-adv-x="1392" 
d="M1186 96q0 -50 -14 -72q-20 -32 -63 -32t-63 32q-14 22 -14 72v554h-672v-554q0 -50 -14 -72q-20 -32 -63 -32t-63 32q-14 22 -14 72v1232q0 50 14 72q20 32 63 32t63 -32q14 -22 14 -72v-542h672v542q0 50 14 72q20 32 63 32t63 -32q14 -22 14 -72v-1232z" />
    <glyph glyph-name="afii10032" unicode="&#x41e;" horiz-adv-x="1304" 
d="M652 1436q214 0 356 -140q41 -41 67 -83t42 -85t23.5 -110t9.5 -130.5t2 -175.5t-2 -175.5t-9.5 -130.5t-23.5 -110t-42 -85t-67 -83q-142 -140 -356 -140t-356 140q-41 41 -67 83t-42 85t-23.5 110t-9.5 130.5t-2 175.5t2 175.5t9.5 130.5t23.5 110t42 85t67 83
q142 140 356 140zM652 124q147 0 246 102q64 66 82 160.5t18 325.5t-18 325.5t-82 160.5q-99 102 -246 102t-246 -102q-64 -66 -82 -160.5t-18 -325.5t18 -325.5t82 -160.5q99 -102 246 -102z" />
    <glyph glyph-name="afii10033" unicode="&#x41f;" horiz-adv-x="1393" 
d="M1033 1288h-673v-1192q0 -50 -14 -72q-20 -32 -63 -32t-63 32q-14 22 -14 72v1235q0 51 21 72t72 21h795q51 0 72 -21t21 -72v-1235q0 -50 -14 -72q-20 -32 -63 -32t-63 32q-14 22 -14 72v1192z" />
    <glyph glyph-name="afii10034" unicode="&#x420;" horiz-adv-x="1265" 
d="M206 1331q0 51 21 72t72 21h439q196 0 319 -114.5t123 -303.5t-123 -304.5t-319 -115.5h-378v-490q0 -50 -14 -72q-20 -32 -63 -32t-63 32q-14 22 -14 72v1235zM726 1288h-366v-566h366q137 0 218 73t81 211q0 137 -80.5 209.5t-218.5 72.5z" />
    <glyph glyph-name="afii10035" unicode="&#x421;" horiz-adv-x="1278" 
d="M152 712q0 138 3.5 212.5t18.5 148.5t43.5 123t79.5 100q138 140 354 140q242 0 382 -171q42 -51 66.5 -110t24.5 -97q0 -36 -20 -56t-51 -20q-29 0 -47 16q-21 18 -36 64q-39 114 -121 176t-199 62q-145 0 -244 -102q-65 -66 -82.5 -161t-17.5 -325t17.5 -325t82.5 -161
q99 -102 244 -102q117 0 199 62t121 176q15 46 36 64q18 16 47 16q31 0 51 -20t20 -56q0 -38 -24.5 -97t-66.5 -110q-140 -171 -382 -171q-216 0 -354 140q-51 51 -79.5 100t-43.5 123t-18.5 148.5t-3.5 212.5z" />
    <glyph glyph-name="afii10036" unicode="&#x422;" horiz-adv-x="1094" 
d="M146 1421h802q46 0 66 -12q29 -19 29 -56t-29 -56q-20 -12 -66 -12h-324v-1192q0 -50 -14 -72q-20 -32 -63 -32t-63 32q-14 22 -14 72v1192h-324q-46 0 -66 12q-29 19 -29 56t29 56q20 12 66 12z" />
    <glyph glyph-name="afii10037" unicode="&#x423;" horiz-adv-x="1016" 
d="M189 1358l327 -845l311 845q17 45 37 61q18 13 39 13q33 0 56 -23q14 -14 17.5 -32.5t0 -33t-11.5 -37.5l-390 -1040q-51 -136 -123 -201t-178 -65h-36q-46 0 -66 12q-29 19 -29 56q0 38 29 56q19 11 69 11q67 0 105.5 30.5t69.5 102.5l23 51l-388 987q-9 22 -12.5 37.5
t0.5 33.5t18 32q23 23 56 23q21 0 39 -13q20 -16 37 -61z" />
    <glyph glyph-name="afii10038" unicode="&#x424;" horiz-adv-x="1554" 
d="M855 1380v-38q306 -11 449.5 -154t143.5 -424q0 -285 -141.5 -431.5t-451.5 -156.5v-88q0 -50 -14 -72q-20 -32 -63 -32t-63 32q-14 22 -14 72v88q-310 10 -452.5 156.5t-142.5 431.5q0 281 144 424t451 154v38q0 50 14 72q20 32 63 32t63 -32q14 -22 14 -72zM260 758
q0 -220 100.5 -333t340.5 -119v906q-126 -3 -213 -35t-136.5 -92.5t-70.5 -139t-21 -187.5zM1294 758q0 109 -21 187.5t-70 139t-135.5 92.5t-212.5 35v-906q122 3 208 34.5t136 91t72.5 139t22.5 187.5z" />
    <glyph glyph-name="afii10039" unicode="&#x425;" horiz-adv-x="1093" 
d="M853 55l-307 544l-306 -544q-12 -20 -20.5 -31.5t-24 -21.5t-33.5 -10q-20 0 -39 11q-39 22 -39 59q0 28 23 69l345 599l-322 563q-23 41 -23 69q0 37 39 59q19 11 39 11q26 0 43 -16t35 -47l283 -511l286 511q12 20 20.5 31.5t24 21.5t33.5 10q20 0 39 -11
q39 -22 39 -59q0 -28 -23 -69l-326 -562l347 -600q23 -41 23 -69q0 -37 -39 -59q-19 -11 -39 -11q-26 0 -43 16t-35 47z" />
    <glyph glyph-name="afii10040" unicode="&#x426;" horiz-adv-x="1430" 
d="M299 0q-51 0 -72 21t-21 72v1235q0 50 14 72q20 32 63 32t63 -32q14 -22 14 -72v-1192h674v1192q0 50 14 72q20 32 63 32t63 -32q14 -22 14 -72v-1192h75q51 0 72 -21t21 -72v-291q0 -50 -14 -72q-20 -32 -63 -32t-63 32q-14 22 -14 72v248h-903z" />
    <glyph glyph-name="afii10041" unicode="&#x427;" horiz-adv-x="1292" 
d="M932 582q-264 -54 -402 -54q-77 0 -142.5 18.5t-120 58.5t-86 111t-31.5 168v444q0 50 14 72q20 32 63 32t63 -32q14 -22 14 -72v-416q0 -74 22 -125t61.5 -76.5t82.5 -36t98 -10.5q114 0 364 50v614q0 50 14 72q20 32 63 32t63 -32q14 -22 14 -72v-1232q0 -50 -14 -72
q-20 -32 -63 -32t-63 32q-14 22 -14 72v486z" />
    <glyph glyph-name="afii10042" unicode="&#x428;" horiz-adv-x="1998" 
d="M299 0q-51 0 -72 21t-21 72v1235q0 50 14 72q20 32 63 32t63 -32q14 -22 14 -72v-1192h562v1192q0 50 14 72q20 32 63 32t63 -32q14 -22 14 -72v-1192h562v1192q0 50 14 72q20 32 63 32t63 -32q14 -22 14 -72v-1235q0 -51 -21 -72t-72 -21h-1400z" />
    <glyph glyph-name="afii10043" unicode="&#x429;" horiz-adv-x="2033" 
d="M299 0q-51 0 -72 21t-21 72v1235q0 50 14 72q20 32 63 32t63 -32q14 -22 14 -72v-1192h562v1192q0 50 14 72q20 32 63 32t63 -32q14 -22 14 -72v-1192h562v1192q0 50 14 72q20 32 63 32t63 -32q14 -22 14 -72v-1192h74q51 0 72 -21t21 -72v-291q0 -50 -14 -72
q-20 -32 -63 -32t-63 32q-14 22 -14 72v248h-1506z" />
    <glyph glyph-name="afii10044" unicode="&#x42a;" horiz-adv-x="1468" 
d="M409 1288h-263q-46 0 -66 12q-29 19 -29 56t29 56q20 12 66 12h324q51 0 72 -21t21 -72v-493h378q196 0 319 -115.5t123 -304.5t-123 -303.5t-319 -114.5h-439q-51 0 -72 21t-21 72v1195zM563 136h367q138 0 218.5 72.5t80.5 209.5q0 138 -81 211t-218 73h-367v-566z" />
    <glyph glyph-name="afii10045" unicode="&#x42b;" horiz-adv-x="1727" 
d="M1521 1328v-1232q0 -50 -14 -72q-20 -32 -63 -32t-63 32q-14 22 -14 72v1232q0 50 14 72q20 32 63 32t63 -32q14 -22 14 -72zM206 93v1235q0 50 14 72q20 32 63 32t63 -32q14 -22 14 -72v-490h378q196 0 319 -115.5t123 -304.5t-123 -303.5t-319 -114.5h-439
q-51 0 -72 21t-21 72zM360 136h367q137 0 218 72.5t81 210.5q0 137 -81 210t-218 73h-367v-566z" />
    <glyph glyph-name="afii10046" unicode="&#x42c;" horiz-adv-x="1265" 
d="M206 93v1235q0 50 14 72q20 32 63 32t63 -32q14 -22 14 -72v-490h378q196 0 319 -115.5t123 -304.5t-123 -303.5t-319 -114.5h-439q-51 0 -72 21t-21 72zM360 136h367q137 0 218 72.5t81 210.5q0 137 -81 210t-218 73h-367v-566z" />
    <glyph glyph-name="afii10047" unicode="&#x42d;" horiz-adv-x="1276" 
d="M1124 712q0 -138 -3.5 -212.5t-18.5 -148.5t-43.5 -123t-79.5 -100q-138 -140 -354 -140q-242 0 -382 171q-42 51 -66.5 110t-24.5 97q0 36 20 56t51 20q29 0 47 -16q21 -18 36 -64q39 -114 121 -176t199 -62q145 0 244 102q61 62 80 148.5t20 275.5h-448q-46 0 -66 12
q-29 19 -29 56t29 56q20 12 66 12h448q-2 182 -21 266t-79 146q-99 102 -244 102q-117 0 -199 -62t-121 -176q-15 -46 -36 -64q-18 -16 -47 -16q-31 0 -51 20t-20 56q0 38 24.5 97t66.5 110q140 171 382 171q216 0 354 -140q51 -51 79.5 -100t43.5 -123t18.5 -148.5
t3.5 -212.5z" />
    <glyph glyph-name="afii10048" unicode="&#x42e;" horiz-adv-x="1806" 
d="M360 1328v-542h297q2 216 28 318t116 192q142 140 356 140t356 -140q41 -41 67 -83t42 -85t23.5 -110t9.5 -130.5t2 -175.5t-2 -175.5t-9.5 -130.5t-23.5 -110t-42 -85t-67 -83q-142 -140 -356 -140t-356 140q-90 90 -116.5 194.5t-27.5 327.5h-297v-554q0 -50 -14 -72
q-20 -32 -63 -32t-63 32q-14 22 -14 72v1232q0 50 14 72q20 32 63 32t63 -32q14 -22 14 -72zM1157 123q147 0 246 102q64 66 82 161t18 326t-18 326t-82 161q-99 102 -246 102t-246 -102q-64 -66 -82 -161t-18 -326t18 -326t82 -161q99 -102 246 -102z" />
    <glyph glyph-name="afii10049" unicode="&#x42f;" horiz-adv-x="1312" 
d="M574 1424h439q51 0 72 -21t21 -72v-1235q0 -50 -14 -72q-20 -32 -63 -32t-63 32q-14 22 -14 72v490h-366l-304 -531q-12 -20 -20.5 -31.5t-24 -21.5t-33.5 -10q-20 0 -39 11q-39 22 -39 59q0 28 23 69l275 481q-133 38 -211.5 141t-78.5 252q0 190 122.5 304.5
t317.5 114.5zM587 1288q-138 0 -219.5 -72.5t-81.5 -210.5q0 -137 81.5 -210t219.5 -73h365v566h-365z" />
    <glyph glyph-name="afii10065" unicode="&#x430;" horiz-adv-x="1053" 
d="M99 279q0 131 90.5 208t249.5 77h298v80q0 115 -57.5 171t-184.5 56q-73 0 -122 -20t-101 -67q-29 -26 -61 -26q-27 0 -44 18q-18 21 -18 46q0 48 94 110q101 64 253 64q190 0 288 -83.5t98 -245.5v-577q0 -46 -13 -67q-19 -31 -60 -31t-60 31q-13 21 -13 67v2
q-59 -58 -122.5 -81t-159.5 -23q-102 0 -167.5 21.5t-112.5 68.5q-75 78 -75 201zM242 280q0 -169 227 -169q72 0 123.5 13.5t93.5 53.5q51 49 51 171v105h-282q-105 0 -159 -44.5t-54 -129.5z" />
    <glyph glyph-name="afii10066" unicode="&#x431;" horiz-adv-x="1067" 
d="M142 577q0 135 1 209t5.5 157t13 127t24.5 91t39 77.5t57 61.5q145 131 503 131q46 0 65 -12q29 -19 29 -55t-29 -55q-19 -12 -65 -12q-313 0 -419 -101q-57 -56 -75 -139t-19 -219q44 69 121.5 107.5t171.5 38.5q160 0 250 -86q128 -121 128 -407q0 -146 -28.5 -238.5
t-91.5 -156.5q-106 -108 -276 -108q-137 0 -231.5 68t-136.5 196q-37 111 -37 325zM800 485q0 116 -18 187t-58 114q-69 74 -178 74q-110 0 -178 -73q-82 -88 -82 -302q0 -208 82 -296q68 -73 178 -73q109 0 178 74q40 43 58 111.5t18 183.5z" />
    <glyph glyph-name="afii10067" unicode="&#x432;" horiz-adv-x="1078" 
d="M653 0h-384q-48 0 -68 20t-20 68v808q0 48 20 68t68 20h372q131 0 210.5 -70.5t79.5 -187.5q0 -160 -156 -216q172 -65 172 -238q0 -126 -78 -199t-216 -73zM789 714q0 70 -45 108t-129 38h-288v-294h288q85 0 129.5 38.5t44.5 109.5zM805 286q0 74 -47.5 118t-130.5 44
h-300v-324h300q83 0 130.5 44t47.5 118z" />
    <glyph glyph-name="afii10068" unicode="&#x433;" horiz-adv-x="849" 
d="M814 919q0 -35 -28 -54q-17 -11 -61 -11h-398v-764q0 -46 -13 -67q-19 -31 -60 -31t-60 31q-13 21 -13 67v806q0 48 20 68t68 20h456q44 0 61 -11q28 -19 28 -54z" />
    <glyph glyph-name="afii10069" unicode="&#x434;" horiz-adv-x="1129" 
d="M47 42q0 48 20 68t68 20h32q59 94 92 214t33 323v229q0 48 20 68t68 20h445q48 0 68 -20t20 -68v-766h62q48 0 68 -20t20 -68v-239q0 -46 -13 -67q-19 -31 -60 -31t-60 31q-13 21 -13 67v197h-724v-197q0 -46 -13 -67q-19 -31 -60 -31t-60 31q-13 21 -13 67v239zM767 854
h-333v-177q0 -360 -114 -547h447v724z" />
    <glyph glyph-name="afii10070" unicode="&#x435;" horiz-adv-x="1058" 
d="M852 455h-581q0 -163 75.5 -252t216.5 -89q127 0 211 71q42 35 68 35q24 0 43 -19t19 -44q0 -49 -102 -112q-96 -57 -245 -57q-203 0 -317 125.5t-114 378.5q0 241 108.5 372.5t297.5 131.5q186 0 294 -124.5t110 -331.5q0 -46 -20 -66q-19 -19 -64 -19zM271 565h522
q-4 94 -31 160q-28 68 -89 107.5t-141 39.5t-141.5 -40t-88.5 -107q-27 -66 -31 -160z" />
    <glyph glyph-name="afii10072" unicode="&#x436;" horiz-adv-x="1422" 
d="M638 572v323q0 46 13 67q19 31 60 31t60 -31q13 -21 13 -67v-323h61l330 377q21 24 36 33.5t33 9.5q23 0 42 -16q24 -21 24 -48q0 -30 -35 -67l-311 -342l345 -396q35 -40 35 -67t-24 -48q-19 -16 -42 -16q-18 0 -33 9.5t-36 33.5l-363 414h-62v-359q0 -46 -13 -67
q-19 -31 -60 -31t-60 31q-13 21 -13 67v359h-62l-363 -414q-21 -24 -36 -33.5t-33 -9.5q-23 0 -42 16q-24 21 -24 48t35 67l345 396l-311 342q-35 37 -35 67q0 27 24 48q19 16 42 16q18 0 33 -9.5t36 -33.5l330 -377h61z" />
    <glyph glyph-name="afii10073" unicode="&#x437;" horiz-adv-x="965" 
d="M103 148q0 23 19 44q19 19 43 19q29 0 61 -25q50 -39 101.5 -55.5t122.5 -16.5q110 0 175.5 44.5t65.5 124.5t-55 122t-148 42h-76q-38 0 -54 10q-26 17 -26 48t26 48q16 10 54 10h78q84 0 134.5 41t50.5 116t-58.5 115t-164.5 40q-111 0 -193 -56q-39 -25 -62 -25
q-26 0 -43 19q-17 17 -17 42q0 35 47 68q102 73 273 73q161 0 260 -70.5t99 -194.5q0 -76 -41.5 -135t-115.5 -85q79 -25 126 -87.5t47 -146.5q0 -132 -103.5 -210.5t-274.5 -78.5q-100 0 -169 19.5t-133 68.5q-49 37 -49 72z" />
    <glyph glyph-name="afii10074" unicode="&#x438;" horiz-adv-x="1144" 
d="M817 758l-464 -697q-46 -69 -92 -69q-35 0 -55 20q-25 25 -25 77v806q0 46 13 67q19 31 60 31t60 -31q13 -21 13 -67v-668l464 696q46 69 92 69q35 0 55 -20q25 -25 25 -77v-805q0 -46 -13 -67q-19 -31 -60 -31t-60 31q-13 21 -13 67v668z" />
    <glyph glyph-name="afii10075" unicode="&#x439;" horiz-adv-x="1144" 
d="M817 758l-464 -697q-46 -69 -92 -69q-35 0 -55 20q-25 25 -25 77v806q0 46 13 67q19 31 60 31t60 -31q13 -21 13 -67v-668l464 696q46 69 92 69q35 0 55 -20q25 -25 25 -77v-805q0 -46 -13 -67q-19 -31 -60 -31t-60 31q-13 21 -13 67v668zM569 1180q-135 0 -244 106
q-31 29 -33 55q-3 25 16 45q19 21 45 19q21 -2 47 -26q85 -80 169 -80t169 80q26 24 47 26q26 2 45 -19q19 -20 16 -45q-2 -26 -33 -55q-109 -106 -244 -106z" />
    <glyph glyph-name="afii10076" unicode="&#x43a;" horiz-adv-x="970" 
d="M327 895v-323h66l330 377q21 24 36 33.5t33 9.5q23 0 42 -16q24 -21 24 -48q0 -30 -35 -67l-311 -342l345 -396q35 -40 35 -67t-24 -48q-19 -16 -42 -16q-18 0 -33 9.5t-36 33.5l-363 414h-67v-359q0 -46 -13 -67q-19 -31 -60 -31t-60 31q-13 21 -13 67v805q0 46 13 67
q19 31 60 31t60 -31q13 -21 13 -67z" />
    <glyph glyph-name="afii10077" unicode="&#x43b;" horiz-adv-x="1095" 
d="M425 854v-334q0 -147 -22 -250t-65 -161t-97.5 -83.5t-127.5 -25.5q-31 0 -50 11q-28 19 -28 53q0 35 28 52q12 7 41 10q30 3 54 14.5t48.5 41t41 75.5t27 123.5t10.5 179.5v336q0 48 20 68t68 20h453q48 0 68 -20t20 -68v-806q0 -46 -13 -67q-19 -31 -60 -31t-60 31
q-13 21 -13 67v764h-343z" />
    <glyph glyph-name="afii10078" unicode="&#x43c;" horiz-adv-x="1314" 
d="M657 176q-52 0 -88 69l-242 465v-620q0 -46 -13 -67q-19 -31 -60 -31t-60 31q-13 21 -13 67v805q0 51 25 76q21 21 53 21q31 0 52.5 -19.5t42.5 -59.5l303 -579l303 579q21 40 42.5 59.5t52.5 19.5q32 0 53 -21q25 -25 25 -76v-805q0 -46 -13 -67q-19 -31 -60 -31t-60 31
q-13 21 -13 67v620l-242 -465q-36 -69 -88 -69z" />
    <glyph glyph-name="afii10079" unicode="&#x43d;" horiz-adv-x="1129" 
d="M802 443h-475v-353q0 -46 -13 -67q-19 -31 -60 -31t-60 31q-13 21 -13 67v805q0 46 13 67q19 31 60 31t60 -31q13 -21 13 -67v-322h475v322q0 46 13 67q19 31 60 31t60 -31q13 -21 13 -67v-805q0 -46 -13 -67q-19 -31 -60 -31t-60 31q-13 21 -13 67v353z" />
    <glyph glyph-name="afii10080" unicode="&#x43e;" horiz-adv-x="1064" 
d="M532 118q107 0 178 71q80 80 80 303q0 222 -80 302q-72 72 -178 72t-178 -72q-80 -80 -80 -302q0 -223 80 -303q71 -71 178 -71zM532 996q171 0 283 -112q71 -72 96 -167t25 -225t-25 -225t-96 -167q-112 -112 -283 -112t-283 112q-71 72 -96 167t-25 225t25 225t96 167
q112 112 283 112z" />
    <glyph glyph-name="afii10081" unicode="&#x43f;" horiz-adv-x="1129" 
d="M201 964q20 20 68 20h591q48 0 68 -20t20 -68v-806q0 -46 -13 -67q-19 -31 -60 -31t-60 31q-13 21 -13 67v764h-475v-764q0 -46 -13 -67q-19 -31 -60 -31t-60 31q-13 21 -13 67v806q0 48 20 68z" />
    <glyph glyph-name="afii10082" unicode="&#x440;" horiz-adv-x="1095" 
d="M967 492q0 -296 -122 -418q-86 -86 -240 -86q-88 0 -154 27t-124 99v-464q0 -46 -13 -67q-19 -31 -60 -31t-60 31q-13 21 -13 67v1244q0 46 13 67q19 31 60 31t60 -31q13 -21 13 -67v-28q58 74 123.5 102t154.5 28q154 0 240 -86q122 -122 122 -418zM327 492
q0 -64 5 -113.5t20.5 -100.5t41.5 -84.5t72 -54.5t108 -21t108 21t72 54.5t41.5 84.5t20.5 100.5t5 113.5t-5 113.5t-20.5 100.5t-41.5 84.5t-72 54.5t-108 21t-108 -21t-72 -54.5t-41.5 -84.5t-20.5 -100.5t-5 -113.5z" />
    <glyph glyph-name="afii10083" unicode="&#x441;" horiz-adv-x="978" 
d="M126 492q0 245 119.5 374.5t315.5 129.5q74 0 130 -19t110 -62q40 -31 55 -49.5t15 -43.5q0 -26 -21 -47q-20 -18 -45 -18q-24 0 -70 38q-48 40 -86.5 55.5t-87.5 15.5q-147 0 -225 -109q-34 -49 -49 -110t-15 -155q0 -93 15 -154t49 -110q78 -110 225 -110q50 0 89 15.5
t85 55.5q43 38 70 38q25 0 45 -18q21 -21 21 -47q0 -25 -17 -46t-53 -48q-101 -80 -240 -80q-196 0 -315.5 130t-119.5 374z" />
    <glyph glyph-name="afii10084" unicode="&#x442;" horiz-adv-x="884" 
d="M849 919q0 -35 -28 -54q-17 -11 -61 -11h-245v-764q0 -46 -13 -67q-19 -31 -60 -31t-60 31q-13 21 -13 67v764h-245q-44 0 -61 11q-28 19 -28 54t28 54q17 11 61 11h636q44 0 61 -11q28 -19 28 -54z" />
    <glyph glyph-name="afii10085" unicode="&#x443;" horiz-adv-x="873" 
d="M436 195l239 727q11 34 27 52t45 18q21 0 40 -12t26 -31q9 -26 -6 -71l-386 -1115q-26 -77 -70 -118q-70 -67 -181 -67q-49 0 -68 15q-22 19 -22 50q0 34 23 51q19 14 53 14q56 0 91.5 27t57.5 94l62 186l-301 863q-15 45 -6 71q7 19 26 31t40 12q29 0 45 -18t27 -52z
" />
    <glyph glyph-name="afii10086" unicode="&#x444;" horiz-adv-x="1380" 
d="M617 996v338q0 46 13 67q19 31 60 31t60 -31q13 -21 13 -67v-338q239 -13 369 -139t130 -363q0 -238 -130.5 -365.5t-368.5 -139.5v-339q0 -46 -13 -67q-19 -31 -60 -31t-60 31q-13 21 -13 67v339q-238 12 -368.5 139.5t-130.5 365.5q0 237 130 363t369 139zM617 113v759
q-174 -6 -264 -105.5t-90 -274.5q0 -174 90 -274t264 -105zM763 872v-759q174 5 264 105t90 274q0 175 -90 274.5t-264 105.5z" />
    </font>
</defs>
</svg>
